  0
SECTION
  2
HEADER
  9
$ACADVER
  1
AC1015
  9
$ACADMAINTVER
 70
    20
  9
$DWGCODEPAGE
  3
ANSI_936
  9
$INSBASE
 10
0.0
 20
0.0
 30
0.0
  9
$EXTMIN
 10
884.3159524677444
 20
105.8123720498166
 30
0.0
  9
$EXTMAX
 10
1026.646622654885
 20
189.3507668936956
 30
0.0
  9
$LIMMIN
 10
0.0
 20
0.0
  9
$LIMMAX
 10
12.0
 20
9.0
  9
$ORTHOMODE
 70
     1
  9
$REGENMODE
 70
     1
  9
$FILLMODE
 70
     1
  9
$QTEXTMODE
 70
     0
  9
$MIRRTEXT
 70
     0
  9
$LTSCALE
 40
1.0
  9
$ATTMODE
 70
     1
  9
$TEXTSIZE
 40
0.2
  9
$TRACEWID
 40
0.05
  9
$TEXTSTYLE
  7
STANDARD
  9
$CLAYER
  8
标注
  9
$CELTYPE
  6
ByLayer
  9
$CECOLOR
 62
   256
  9
$CELTSCALE
 40
1.0
  9
$DISPSILH
 70
     0
  9
$DIMSCALE
 40
1.0
  9
$DIMASZ
 40
0.65
  9
$DIMEXO
 40
0.88
  9
$DIMDLI
 40
0.015
  9
$DIMRND
 40
0.0
  9
$DIMDLE
 40
0.0
  9
$DIMEXE
 40
0.32
  9
$DIMTP
 40
0.0
  9
$DIMTM
 40
0.0
  9
$DIMTXT
 40
0.65
  9
$DIMCEN
 40
0.09
  9
$DIMTSZ
 40
0.0
  9
$DIMTOL
 70
     0
  9
$DIMLIM
 70
     0
  9
$DIMTIH
 70
     0
  9
$DIMTOH
 70
     0
  9
$DIMSE1
 70
     0
  9
$DIMSE2
 70
     0
  9
$DIMTAD
 70
     0
  9
$DIMZIN
 70
     8
  9
$DIMBLK
  1

  9
$DIMASO
 70
     1
  9
$DIMSHO
 70
     1
  9
$DIMPOST
  1
"
  9
$DIMAPOST
  1
"
  9
$DIMALT
 70
     0
  9
$DIMALTD
 70
     1
  9
$DIMALTF
 40
0.03937
  9
$DIMLFAC
 40
1.0
  9
$DIMTOFL
 70
     1
  9
$DIMTVP
 40
0.0
  9
$DIMTIX
 70
     0
  9
$DIMSOXD
 70
     0
  9
$DIMSAH
 70
     0
  9
$DIMBLK1
  1

  9
$DIMBLK2
  1

  9
$DIMSTYLE
  2
副本STANDARD
  9
$DIMCLRD
 70
   256
  9
$DIMCLRE
 70
   256
  9
$DIMCLRT
 70
   256
  9
$DIMTFAC
 40
1.0
  9
$DIMGAP
 40
0.3
  9
$DIMJUST
 70
     0
  9
$DIMSD1
 70
     0
  9
$DIMSD2
 70
     0
  9
$DIMTOLJ
 70
     1
  9
$DIMTZIN
 70
     8
  9
$DIMALTZ
 70
     8
  9
$DIMALTTZ
 70
     8
  9
$DIMUPT
 70
     0
  9
$DIMDEC
 70
     3
  9
$DIMTDEC
 70
     3
  9
$DIMALTU
 70
     2
  9
$DIMALTTD
 70
     1
  9
$DIMTXSTY
  7
STANDARD
  9
$DIMAUNIT
 70
     0
  9
$DIMADEC
 70
     0
  9
$DIMALTRND
 40
0.0
  9
$DIMAZIN
 70
     0
  9
$DIMDSEP
 70
    46
  9
$DIMATFIT
 70
     3
  9
$DIMFRAC
 70
     2
  9
$DIMLDRBLK
  1

  9
$DIMLUNIT
 70
     5
  9
$DIMLWD
 70
    -2
  9
$DIMLWE
 70
    -2
  9
$DIMTMOVE
 70
     2
  9
$LUNITS
 70
     2
  9
$LUPREC
 70
     4
  9
$SKETCHINC
 40
0.1
  9
$FILLETRAD
 40
0.0
  9
$AUNITS
 70
     0
  9
$AUPREC
 70
     0
  9
$MENU
  1
.
  9
$ELEVATION
 40
0.0
  9
$PELEVATION
 40
0.0
  9
$THICKNESS
 40
0.0
  9
$LIMCHECK
 70
     0
  9
$CHAMFERA
 40
0.0
  9
$CHAMFERB
 40
0.0
  9
$CHAMFERC
 40
0.0
  9
$CHAMFERD
 40
0.0
  9
$SKPOLY
 70
     0
  9
$TDCREATE
 40
2455434.724808658
  9
$TDUCREATE
 40
2455434.391475324
  9
$TDUPDATE
 40
2458564.652904306
  9
$TDUUPDATE
 40
2458564.319570972
  9
$TDINDWG
 40
0.4400921065
  9
$TDUSRTIMER
 40
0.4400750463
  9
$USRTIMER
 70
     1
  9
$ANGBASE
 50
0.0
  9
$ANGDIR
 70
     0
  9
$PDMODE
 70
     0
  9
$PDSIZE
 40
0.0
  9
$PLINEWID
 40
0.0
  9
$SPLFRAME
 70
     0
  9
$SPLINETYPE
 70
     6
  9
$SPLINESEGS
 70
     8
  9
$HANDSEED
  5
688E
  9
$SURFTAB1
 70
     6
  9
$SURFTAB2
 70
     6
  9
$SURFTYPE
 70
     6
  9
$SURFU
 70
     6
  9
$SURFV
 70
     6
  9
$UCSBASE
  2

  9
$UCSNAME
  2

  9
$UCSORG
 10
0.0
 20
0.0
 30
0.0
  9
$UCSXDIR
 10
1.0
 20
0.0
 30
0.0
  9
$UCSYDIR
 10
0.0
 20
1.0
 30
0.0
  9
$UCSORTHOREF
  2

  9
$UCSORTHOVIEW
 70
     0
  9
$UCSORGTOP
 10
0.0
 20
0.0
 30
0.0
  9
$UCSORGBOTTOM
 10
0.0
 20
0.0
 30
0.0
  9
$UCSORGLEFT
 10
0.0
 20
0.0
 30
0.0
  9
$UCSORGRIGHT
 10
0.0
 20
0.0
 30
0.0
  9
$UCSORGFRONT
 10
0.0
 20
0.0
 30
0.0
  9
$UCSORGBACK
 10
0.0
 20
0.0
 30
0.0
  9
$PUCSBASE
  2

  9
$PUCSNAME
  2

  9
$PUCSORG
 10
0.0
 20
0.0
 30
0.0
  9
$PUCSXDIR
 10
1.0
 20
0.0
 30
0.0
  9
$PUCSYDIR
 10
0.0
 20
1.0
 30
0.0
  9
$PUCSORTHOREF
  2

  9
$PUCSORTHOVIEW
 70
     0
  9
$PUCSORGTOP
 10
0.0
 20
0.0
 30
0.0
  9
$PUCSORGBOTTOM
 10
0.0
 20
0.0
 30
0.0
  9
$PUCSORGLEFT
 10
0.0
 20
0.0
 30
0.0
  9
$PUCSORGRIGHT
 10
0.0
 20
0.0
 30
0.0
  9
$PUCSORGFRONT
 10
0.0
 20
0.0
 30
0.0
  9
$PUCSORGBACK
 10
0.0
 20
0.0
 30
0.0
  9
$USERI1
 70
     0
  9
$USERI2
 70
     0
  9
$USERI3
 70
     0
  9
$USERI4
 70
     0
  9
$USERI5
 70
     0
  9
$USERR1
 40
0.0
  9
$USERR2
 40
0.0
  9
$USERR3
 40
0.0
  9
$USERR4
 40
0.0
  9
$USERR5
 40
2.5
  9
$WORLDVIEW
 70
     1
  9
$SHADEDGE
 70
     3
  9
$SHADEDIF
 70
    70
  9
$TILEMODE
 70
     1
  9
$MAXACTVP
 70
    64
  9
$PINSBASE
 10
0.0
 20
0.0
 30
0.0
  9
$PLIMCHECK
 70
     0
  9
$PEXTMIN
 10
1.000000000000000E+20
 20
1.000000000000000E+20
 30
1.000000000000000E+20
  9
$PEXTMAX
 10
-1.000000000000000E+20
 20
-1.000000000000000E+20
 30
-1.000000000000000E+20
  9
$PLIMMIN
 10
0.0
 20
0.0
  9
$PLIMMAX
 10
12.0
 20
9.0
  9
$UNITMODE
 70
     0
  9
$VISRETAIN
 70
     1
  9
$PLINEGEN
 70
     0
  9
$PSLTSCALE
 70
     1
  9
$TREEDEPTH
 70
  3020
  9
$CMLSTYLE
  2
Standard
  9
$CMLJUST
 70
     0
  9
$CMLSCALE
 40
1.0
  9
$PROXYGRAPHICS
 70
     1
  9
$MEASUREMENT
 70
     0
  9
$CELWEIGHT
370
    -1
  9
$ENDCAPS
280
     0
  9
$JOINSTYLE
280
     0
  9
$LWDISPLAY
290
     0
  9
$INSUNITS
 70
     0
  9
$HYPERLINKBASE
  1

  9
$STYLESHEET
  1

  9
$XEDIT
290
     1
  9
$CEPSNTYPE
380
     0
  9
$PSTYLEMODE
290
     1
  9
$FINGERPRINTGUID
  2
{7BAC09DB-C4D0-41DB-8C07-4C6808ADD930}
  9
$VERSIONGUID
  2
{6E9A772E-1B97-4A75-AD34-18DC0EDE3868}
  9
$EXTNAMES
290
     1
  9
$PSVPSCALE
 40
0.0
  9
$OLESTARTUP
290
     0
  0
ENDSEC
  0
SECTION
  2
CLASSES
  0
CLASS
  1
ACDBDICTIONARYWDFLT
  2
AcDbDictionaryWithDefault
  3
ObjectDBX Classes
 90
        0
280
     0
281
     0
  0
CLASS
  1
MATERIAL
  2
AcDbMaterial
  3
ObjectDBX Classes
 90
     1153
280
     0
281
     0
  0
CLASS
  1
VISUALSTYLE
  2
AcDbVisualStyle
  3
ObjectDBX Classes
 90
     4095
280
     0
281
     0
  0
CLASS
  1
SCALE
  2
AcDbScale
  3
ObjectDBX Classes
 90
     1153
280
     0
281
     0
  0
CLASS
  1
TABLESTYLE
  2
AcDbTableStyle
  3
ObjectDBX Classes
 90
     4095
280
     0
281
     0
  0
CLASS
  1
MLEADERSTYLE
  2
AcDbMLeaderStyle
  3
ACDB_MLEADERSTYLE_CLASS
 90
     4095
280
     0
281
     0
  0
CLASS
  1
VLO-VL
  2
vlo_VL
  3
VL|AutoLISP based application
 90
      129
280
     0
281
     0
  0
CLASS
  1
DICTIONARYVAR
  2
AcDbDictionaryVar
  3
ObjectDBX Classes
 90
        0
280
     0
281
     0
  0
CLASS
  1
CELLSTYLEMAP
  2
AcDbCellStyleMap
  3
ObjectDBX Classes
 90
     1152
280
     0
281
     0
  0
CLASS
  1
DIMASSOC
  2
AcDbDimAssoc
  3
"AcDbDimAssoc|Product Desc:     AcDim ARX App For Dimension|Company:          Autodesk, Inc.|WEB Address:      www.autodesk.com"
 90
        0
280
     0
281
     0
  0
CLASS
  1
SORTENTSTABLE
  2
AcDbSortentsTable
  3
ObjectDBX Classes
 90
        0
280
     0
281
     0
  0
CLASS
  1
ACDBPLACEHOLDER
  2
AcDbPlaceHolder
  3
ObjectDBX Classes
 90
        0
280
     0
281
     0
  0
CLASS
  1
LAYOUT
  2
AcDbLayout
  3
ObjectDBX Classes
 90
        0
280
     0
281
     0
  0
ENDSEC
  0
SECTION
  2
TABLES
  0
TABLE
  2
VPORT
  5
5F02
330
0
100
AcDbSymbolTable
 70
     1
  0
VPORT
  5
5F73
330
5F02
100
AcDbSymbolTableRecord
100
AcDbViewportTableRecord
  2
*ACTIVE
 70
     0
 10
0.0
 20
0.0
 11
1.0
 21
1.0
 12
1017.202831398405
 22
147.4221527102626
 13
0.0
 23
0.0
 14
0.5
 24
0.5
 15
0.5
 25
0.5
 16
0.0
 26
0.0
 36
1.0
 17
0.0
 27
0.0
 37
0.0
 40
77.38480465562878
 41
1.532623169107856
 42
50.0
 43
0.0
 44
0.0
 50
0.0
 51
0.0
 71
     0
 72
  1000
 73
     1
 74
     3
 75
     0
 76
     0
 77
     0
 78
     0
281
     0
 65
     1
110
0.0
120
0.0
130
0.0
111
1.0
121
0.0
131
0.0
112
0.0
122
1.0
132
0.0
 79
     0
146
0.0
  0
ENDTAB
  0
TABLE
  2
LTYPE
  5
5EFF
330
0
100
AcDbSymbolTable
 70
     4
  0
LTYPE
  5
5F5C
330
5EFF
100
AcDbSymbolTableRecord
100
AcDbLinetypeTableRecord
  2
ByBlock
 70
     0
  3

 72
    65
 73
     0
 40
0.0
  0
LTYPE
  5
5F5D
330
5EFF
100
AcDbSymbolTableRecord
100
AcDbLinetypeTableRecord
  2
ByLayer
 70
     0
  3

 72
    65
 73
     0
 40
0.0
  0
LTYPE
  5
5F5E
330
5EFF
100
AcDbSymbolTableRecord
100
AcDbLinetypeTableRecord
  2
CONTINUOUS
 70
     0
  3
Solid line
 72
    65
 73
     0
 40
0.0
  0
LTYPE
  5
5F74
330
5EFF
100
AcDbSymbolTableRecord
100
AcDbLinetypeTableRecord
  2
CENTER2
 70
     0
  3
Center (.5x) ___ _ ___ _ ___ _ ___ _ ___ _ ___
 72
    65
 73
     4
 40
28.575
 49
19.05
 74
     0
 49
-3.174999999999998
 74
     0
 49
3.174999999999998
 74
     0
 49
-3.174999999999998
 74
     0
  0
LTYPE
  5
5F75
330
5EFF
100
AcDbSymbolTableRecord
100
AcDbLinetypeTableRecord
  2
HIDDEN2
 70
     0
  3
Hidden (.5x) _ _ _ _ _ _ _ _ _ _ _ _ _ _ _ _ _
 72
    65
 73
     2
 40
4.762499999999998
 49
3.174999999999998
 74
     0
 49
-1.587499999999999
 74
     0
  0
ENDTAB
  0
TABLE
  2
LAYER
  5
5EFC
102
{ACAD_XDICTIONARY
360
61B7
102
}
330
0
100
AcDbSymbolTable
 70
     8
  0
LAYER
  5
5F56
102
{ACAD_XDICTIONARY
360
60F4
102
}
330
5EFC
100
AcDbSymbolTableRecord
100
AcDbLayerTableRecord
  2
0
 70
     0
 62
     7
  6
CONTINUOUS
370
    -3
390
5F09
  0
LAYER
  5
5F72
102
{ACAD_XDICTIONARY
360
60F6
102
}
330
5EFC
100
AcDbSymbolTableRecord
100
AcDbLayerTableRecord
  2
标注
 70
     0
 62
    80
  6
CONTINUOUS
370
    -3
390
5F09
  0
LAYER
  5
5F7D
102
{ACAD_XDICTIONARY
360
60F8
102
}
330
5EFC
100
AcDbSymbolTableRecord
100
AcDbLayerTableRecord
  2
中心线
 70
     0
 62
     1
  6
CENTER2
370
    -3
390
5F09
  0
LAYER
  5
5F7E
102
{ACAD_XDICTIONARY
360
60FA
102
}
330
5EFC
100
AcDbSymbolTableRecord
100
AcDbLayerTableRecord
  2
虚线
 70
     0
 62
     4
  6
HIDDEN2
370
    -3
390
5F09
  0
LAYER
  5
5F7F
330
5EFC
100
AcDbSymbolTableRecord
100
AcDbLayerTableRecord
  2
DEFPOINTS
 70
     0
 62
     7
  6
CONTINUOUS
290
     0
370
    -3
390
5F09
  0
LAYER
  5
5F80
102
{ACAD_XDICTIONARY
360
60FC
102
}
330
5EFC
100
AcDbSymbolTableRecord
100
AcDbLayerTableRecord
  2
细实线
 70
     0
 62
     7
  6
CONTINUOUS
370
    -3
390
5F09
  0
LAYER
  5
61B1
102
{ACAD_XDICTIONARY
360
61B2
102
}
330
5EFC
100
AcDbSymbolTableRecord
100
AcDbLayerTableRecord
  2
粗实线
 70
     0
 62
     7
  6
CONTINUOUS
370
    35
390
5F09
  0
ENDTAB
  0
TABLE
  2
STYLE
  5
5EFD
330
0
100
AcDbSymbolTable
 70
     2
  0
STYLE
  5
5F57
330
5EFD
100
AcDbSymbolTableRecord
100
AcDbTextStyleTableRecord
  2
STANDARD
 70
     0
 40
0.0
 41
1.0
 50
0.0
 71
     0
 42
0.2
  3
arial.ttf
  4

1001
ACAD
1000
Arial
1071
       34
  0
ENDTAB
  0
TABLE
  2
VIEW
  5
5F00
330
0
100
AcDbSymbolTable
 70
     0
  0
ENDTAB
  0
TABLE
  2
UCS
  5
5F01
330
0
100
AcDbSymbolTable
 70
     0
  0
ENDTAB
  0
TABLE
  2
APPID
  5
5F03
330
0
100
AcDbSymbolTable
 70
    28
  0
APPID
  5
5F58
330
5F03
100
AcDbSymbolTableRecord
100
AcDbRegAppTableRecord
  2
ACAD
 70
     0
  0
APPID
  5
5F5F
330
5F03
100
AcDbSymbolTableRecord
100
AcDbRegAppTableRecord
  2
ACADANNOTATIVE
 70
     0
  0
APPID
  5
5F69
330
5F03
100
AcDbSymbolTableRecord
100
AcDbRegAppTableRecord
  2
ACAD_MLEADERVER
 70
     0
  0
APPID
  5
5F84
330
5F03
100
AcDbSymbolTableRecord
100
AcDbRegAppTableRecord
  2
ACAECLAYERSTANDARD
 70
     0
  0
APPID
  5
5F85
330
5F03
100
AcDbSymbolTableRecord
100
AcDbRegAppTableRecord
  2
ACAD_DSTYLE_DIMEXT_LENGTH
 70
     0
  0
APPID
  5
5F86
330
5F03
100
AcDbSymbolTableRecord
100
AcDbRegAppTableRecord
  2
ACAD_DSTYLE_DIMEXT_ENABLED
 70
     0
  0
APPID
  5
5F87
330
5F03
100
AcDbSymbolTableRecord
100
AcDbRegAppTableRecord
  2
ACAD_DSTYLE_DIMJOGGED_JOGA
 70
     0
  0
APPID
  5
5F88
330
5F03
100
AcDbSymbolTableRecord
100
AcDbRegAppTableRecord
  2
ACAD_DSTYLE_DIMARC_LENGTH_
 70
     0
  0
APPID
  5
5F89
330
5F03
100
AcDbSymbolTableRecord
100
AcDbRegAppTableRecord
  2
ACAD_PSEXT
 70
     0
  0
APPID
  5
5F8A
330
5F03
100
AcDbSymbolTableRecord
100
AcDbRegAppTableRecord
  2
MCAD_NO_VIS
 70
     0
  0
APPID
  5
5F8B
330
5F03
100
AcDbSymbolTableRecord
100
AcDbRegAppTableRecord
  2
ACAD_TEMP_GRAPHIC
 70
     0
  0
APPID
  5
5F8C
330
5F03
100
AcDbSymbolTableRecord
100
AcDbRegAppTableRecord
  2
AD_DRAW
 70
     0
  0
APPID
  5
5F8D
330
5F03
100
AcDbSymbolTableRecord
100
AcDbRegAppTableRecord
  2
ACATTRIBSERVICES
 70
     0
  0
APPID
  5
5F8E
330
5F03
100
AcDbSymbolTableRecord
100
AcDbRegAppTableRecord
  2
DESIGNERASSEMBLIES
 70
     0
  0
APPID
  5
5F8F
330
5F03
100
AcDbSymbolTableRecord
100
AcDbRegAppTableRecord
  2
ACADM_DIM_EDIT
 70
     0
  0
APPID
  5
5F90
330
5F03
100
AcDbSymbolTableRecord
100
AcDbRegAppTableRecord
  2
AMDT_DM_ADJ
 70
     0
  0
APPID
  5
5F91
330
5F03
100
AcDbSymbolTableRecord
100
AcDbRegAppTableRecord
  2
ACAD_DSTYLE_DIMJAG
 70
     0
  0
APPID
  5
5F92
330
5F03
100
AcDbSymbolTableRecord
100
AcDbRegAppTableRecord
  2
ACAD_DSTYLE_DIMBREAK
 70
     0
  0
APPID
  5
5F93
330
5F03
100
AcDbSymbolTableRecord
100
AcDbRegAppTableRecord
  2
ACAD_DSTYLE_DIMTALN
 70
     0
  0
APPID
  5
5F94
330
5F03
100
AcDbSymbolTableRecord
100
AcDbRegAppTableRecord
  2
GENIUS_GENODEF_13
 70
     0
  0
APPID
  5
5F95
330
5F03
100
AcDbSymbolTableRecord
100
AcDbRegAppTableRecord
  2
GENIUS_GENOBJ-N-FIL_13
 70
     0
  0
APPID
  5
5F96
330
5F03
100
AcDbSymbolTableRecord
100
AcDbRegAppTableRecord
  2
ACAD_EXEMPT_FROM_CAD_STANDARDS
 70
     0
  0
APPID
  5
5F97
330
5F03
100
AcDbSymbolTableRecord
100
AcDbRegAppTableRecord
  2
ACAD_DSTYLE_DIM_LINETYPE
 70
     0
  0
APPID
  5
5F98
330
5F03
100
AcDbSymbolTableRecord
100
AcDbRegAppTableRecord
  2
ACAD_DSTYLE_DIM_EXT1_LINETYPE
 70
     0
  0
APPID
  5
5F99
330
5F03
100
AcDbSymbolTableRecord
100
AcDbRegAppTableRecord
  2
ACAD_DSTYLE_DIM_EXT2_LINETYPE
 70
     0
  0
APPID
  5
5F9A
330
5F03
100
AcDbSymbolTableRecord
100
AcDbRegAppTableRecord
  2
ACAD_DSTYLE_DIMRADIAL_EXTENSION
 70
     0
  0
APPID
  5
6488
330
5F03
100
AcDbSymbolTableRecord
100
AcDbRegAppTableRecord
  2
AcadAnnoPO
 70
     0
  0
APPID
  5
660B
330
5F03
100
AcDbSymbolTableRecord
100
AcDbRegAppTableRecord
  2
ACAD_DSTYLE_DIMJOGGED_JOGANGLE_SYMBOL
 70
     0
  0
ENDTAB
  0
TABLE
  2
DIMSTYLE
  5
5F04
330
0
100
AcDbSymbolTable
 70
    10
100
AcDbDimStyleTable
 71
     2
340
5F9B
340
5F59
  0
DIMSTYLE
105
5F59
330
5F04
100
AcDbSymbolTableRecord
100
AcDbDimStyleTableRecord
  2
STANDARD
 70
     0
 41
0.65
 73
     0
 74
     0
140
0.65
176
     3
177
     3
178
     3
271
     3
272
     3
276
     2
277
     5
279
     2
284
     8
285
     8
286
     8
340
5F57
371
    13
372
    13
1001
ACAD_DSTYLE_DIMJAG
1070
   388
1040
1.5
1001
ACAD_DSTYLE_DIMTALN
1070
   392
1070
     0
1001
ACAD_DSTYLE_DIM_LINETYPE
1070
   380
1005
5F5E
1001
ACAD_DSTYLE_DIM_EXT1_LINETYPE
1070
   381
1005
5F5E
1001
ACAD_DSTYLE_DIM_EXT2_LINETYPE
1070
   382
1005
5F5E
  0
DIMSTYLE
105
5F9B
102
{ACAD_REACTORS
330
67E5
330
67F3
330
6801
330
680F
330
681D
330
682B
330
6839
330
6855
330
6865
330
686F
102
}
330
5F04
100
AcDbSymbolTableRecord
100
AcDbDimStyleTableRecord
  2
副本STANDARD
 70
     0
  3
"
  4
"
 41
0.65
 42
0.88
 43
0.015
 44
0.32
 73
     0
 74
     0
 78
     8
140
0.65
143
0.03937
147
0.3
171
     1
172
     1
176
   256
177
   256
178
   256
271
     3
272
     3
274
     1
276
     2
277
     5
279
     2
284
     8
285
     8
286
     8
340
5F57
1001
ACAD_DSTYLE_DIMJAG
1070
   388
1040
1.5
1001
ACAD_DSTYLE_DIMTALN
1070
   392
1070
     0
  0
DIMSTYLE
105
674B
330
5F04
100
AcDbSymbolTableRecord
100
AcDbDimStyleTableRecord
  2
XIAO
 70
     0
 41
3.5
 42
3.0
 43
1.0
 44
1.0
 73
     0
 74
     0
 77
     1
 78
     8
140
4.0
141
1.5
143
0.03937007874016
147
1.0
171
     3
172
     1
179
     1
271
     1
272
     1
274
     3
278
    44
283
     0
284
     8
340
5F57
  0
DIMSTYLE
105
674C
330
5F04
100
AcDbSymbolTableRecord
100
AcDbDimStyleTableRecord
  2
090319-
 70
     0
 41
16.0
 42
20.0
 43
1.5
 44
3.0
 73
     0
 74
     0
 77
     1
 78
     8
140
20.0
141
3.0
143
0.03937007874016
147
7.0
171
     3
172
     1
179
     1
271
     2
272
     2
274
     3
278
    44
283
     0
284
     8
340
5F57
  0
DIMSTYLE
105
674D
330
5F04
100
AcDbSymbolTableRecord
100
AcDbDimStyleTableRecord
  2
毫米英寸Standard
 70
     0
  3
mm
  4
"
 41
14.0
 42
20.0
 44
8.0
 73
     0
 74
     0
 78
     8
 79
     2
140
14.0
143
0.03937
147
8.0
170
     1
171
     3
172
     1
176
   256
177
   256
178
   256
179
     1
271
     1
272
     1
273
     7
274
     3
278
    44
340
5F57
1001
ACAD_DSTYLE_DIMBREAK
1070
   391
1040
0.125
1001
ACAD_DSTYLE_DIMJAG
1070
   388
1040
1.5
1001
ACAD_DSTYLE_DIMTALN
1070
   392
1070
     0
  0
DIMSTYLE
105
674E
330
5F04
100
AcDbSymbolTableRecord
100
AcDbDimStyleTableRecord
  2
毫米英寸
 70
     0
  3
mm
  4
"
 41
20.0
 42
20.0
 43
3.75
 44
5.0
 45
0.0005
 73
     0
 74
     0
 78
     8
140
20.0
141
2.5
143
0.03937007874
147
2.0
170
     1
171
     3
172
     1
176
   256
177
   256
178
   256
179
     1
271
     1
272
     1
273
     7
274
     3
276
     2
283
     0
284
     8
285
    12
340
5F57
371
     9
372
     9
1001
ACAD_DSTYLE_DIMBREAK
1070
   391
1040
3.75
1001
ACAD_DSTYLE_DIMJAG
1070
   388
1040
1.5
1001
ACAD_DSTYLE_DIMTALN
1070
   392
1070
     0
1001
ACAD_DSTYLE_DIMEXT_LENGTH
1070
   378
1040
8.0
1001
ACAD_DSTYLE_DIM_LINETYPE
1070
   380
1005
5F5D
  0
ENDTAB
  0
TABLE
  2
BLOCK_RECORD
  5
5EFB
330
0
100
AcDbSymbolTable
 70
    53
  0
BLOCK_RECORD
  5
5F6E
102
{ACAD_XDICTIONARY
360
654F
102
}
330
5EFB
100
AcDbSymbolTableRecord
100
AcDbBlockTableRecord
  2
*Model_Space
340
5F71
  0
BLOCK_RECORD
  5
5F6A
330
5EFB
100
AcDbSymbolTableRecord
100
AcDbBlockTableRecord
  2
*Paper_Space
340
5F6D
  0
BLOCK_RECORD
  5
6367
330
5EFB
100
AcDbSymbolTableRecord
100
AcDbBlockTableRecord
  2
*D22
340
0
  0
BLOCK_RECORD
  5
6490
330
5EFB
100
AcDbSymbolTableRecord
100
AcDbBlockTableRecord
  2
*D23
340
0
  0
BLOCK_RECORD
  5
649E
330
5EFB
100
AcDbSymbolTableRecord
100
AcDbBlockTableRecord
  2
*D24
340
0
  0
BLOCK_RECORD
  5
64AC
330
5EFB
100
AcDbSymbolTableRecord
100
AcDbBlockTableRecord
  2
*D25
340
0
  0
BLOCK_RECORD
  5
64BA
330
5EFB
100
AcDbSymbolTableRecord
100
AcDbBlockTableRecord
  2
*D26
340
0
  0
BLOCK_RECORD
  5
6511
330
5EFB
100
AcDbSymbolTableRecord
100
AcDbBlockTableRecord
  2
*D29
340
0
  0
BLOCK_RECORD
  5
6522
330
5EFB
100
AcDbSymbolTableRecord
100
AcDbBlockTableRecord
  2
*D30
340
0
  0
BLOCK_RECORD
  5
6554
330
5EFB
100
AcDbSymbolTableRecord
100
AcDbBlockTableRecord
  2
*D31
340
0
  0
BLOCK_RECORD
  5
6562
330
5EFB
100
AcDbSymbolTableRecord
100
AcDbBlockTableRecord
  2
*D32
340
0
  0
BLOCK_RECORD
  5
6570
330
5EFB
100
AcDbSymbolTableRecord
100
AcDbBlockTableRecord
  2
*D33
340
0
  0
BLOCK_RECORD
  5
66C4
330
5EFB
100
AcDbSymbolTableRecord
100
AcDbBlockTableRecord
  2
*D35
340
0
  0
BLOCK_RECORD
  5
66DC
330
5EFB
100
AcDbSymbolTableRecord
100
AcDbBlockTableRecord
  2
*D36
340
0
  0
BLOCK_RECORD
  5
66EA
330
5EFB
100
AcDbSymbolTableRecord
100
AcDbBlockTableRecord
  2
*D37
340
0
  0
BLOCK_RECORD
  5
66F8
330
5EFB
100
AcDbSymbolTableRecord
100
AcDbBlockTableRecord
  2
*D38
340
0
  0
BLOCK_RECORD
  5
670D
330
5EFB
100
AcDbSymbolTableRecord
100
AcDbBlockTableRecord
  2
*D39
340
0
  0
BLOCK_RECORD
  5
671B
330
5EFB
100
AcDbSymbolTableRecord
100
AcDbBlockTableRecord
  2
*D40
340
0
  0
BLOCK_RECORD
  5
6729
330
5EFB
100
AcDbSymbolTableRecord
100
AcDbBlockTableRecord
  2
*D41
340
0
  0
BLOCK_RECORD
  5
67E6
330
5EFB
100
AcDbSymbolTableRecord
100
AcDbBlockTableRecord
  2
*D43
340
0
  0
BLOCK_RECORD
  5
67F4
330
5EFB
100
AcDbSymbolTableRecord
100
AcDbBlockTableRecord
  2
*D44
340
0
  0
BLOCK_RECORD
  5
6802
330
5EFB
100
AcDbSymbolTableRecord
100
AcDbBlockTableRecord
  2
*D45
340
0
  0
BLOCK_RECORD
  5
6810
330
5EFB
100
AcDbSymbolTableRecord
100
AcDbBlockTableRecord
  2
*D46
340
0
  0
BLOCK_RECORD
  5
681E
330
5EFB
100
AcDbSymbolTableRecord
100
AcDbBlockTableRecord
  2
*D47
340
0
  0
BLOCK_RECORD
  5
682C
330
5EFB
100
AcDbSymbolTableRecord
100
AcDbBlockTableRecord
  2
*D48
340
0
  0
BLOCK_RECORD
  5
683A
330
5EFB
100
AcDbSymbolTableRecord
100
AcDbBlockTableRecord
  2
*D49
340
0
  0
BLOCK_RECORD
  5
6856
330
5EFB
100
AcDbSymbolTableRecord
100
AcDbBlockTableRecord
  2
*D50
340
0
  0
BLOCK_RECORD
  5
6866
330
5EFB
100
AcDbSymbolTableRecord
100
AcDbBlockTableRecord
  2
*D51
340
0
  0
BLOCK_RECORD
  5
6870
330
5EFB
100
AcDbSymbolTableRecord
100
AcDbBlockTableRecord
  2
*D52
340
0
  0
ENDTAB
  0
ENDSEC
  0
SECTION
  2
BLOCKS
  0
BLOCK
  5
5F6F
330
5F6E
100
AcDbEntity
  8
0
100
AcDbBlockBegin
  2
*Model_Space
 70
     0
 10
0.0
 20
0.0
 30
0.0
  3
*Model_Space
  1

  0
ENDBLK
  5
5F70
330
5F6E
100
AcDbEntity
  8
0
100
AcDbBlockEnd
  0
BLOCK
  5
5F6B
330
5F6A
100
AcDbEntity
 67
     1
  8
0
100
AcDbBlockBegin
  2
*Paper_Space
 70
     0
 10
0.0
 20
0.0
 30
0.0
  3
*Paper_Space
  1

  0
ENDBLK
  5
5F6C
330
5F6A
100
AcDbEntity
 67
     1
  8
0
100
AcDbBlockEnd
  0
BLOCK
  5
6368
330
6367
100
AcDbEntity
  8
0
100
AcDbBlockBegin
  2
*D22
 70
     1
 10
0.0
 20
0.0
 30
0.0
  3
*D22
  1

  0
ARC
  5
65F9
330
6367
100
AcDbEntity
  8
标注
  6
Continuous
 62
     3
370
    13
100
AcDbCircle
 10
917.0766425871788
 20
189.3507668936786
 30
0.0
 40
2.274130749127198
100
AcDbArc
 50
196.4327435337958
 51
206.5211549833967
  0
ARC
  5
65FA
330
6367
100
AcDbEntity
  8
标注
  6
Continuous
 62
     3
370
    13
100
AcDbCircle
 10
917.0766425871788
 20
189.3507668936786
 30
0.0
 40
2.274130749127198
100
AcDbArc
 50
243.8633230662676
 51
249.5621670877036
  0
SOLID
  5
65FB
330
6367
100
AcDbEntity
  8
标注
 62
     3
100
AcDbTrace
 10
914.7881831352483
 20
188.691956754574
 30
0.0
 11
915.0026258129473
 21
188.7229209665893
 31
0.0
 12
914.8025118380516
 22
189.3507668936786
 32
0.0
 13
914.8025118380516
 23
189.3507668936786
 33
0.0
  0
SOLID
  5
65FC
330
6367
100
AcDbEntity
  8
标注
 62
     3
100
AcDbTrace
 10
916.3054700791686
 20
187.3256671304951
 30
0.0
 11
916.2596037196697
 21
187.1139108519323
 31
0.0
 12
916.9178057351073
 22
187.0821899127168
 32
0.0
 13
916.9178057351073
 23
187.0821899127168
 33
0.0
  0
MTEXT
  5
65FD
330
6367
100
AcDbEntity
  8
标注
 62
     3
100
AcDbMText
 10
915.4739937009502
 20
187.7373273343532
 30
0.0
 40
0.65
 41
0.0
 71
     5
 72
     1
  1
\A1;86\U+00B0
 11
0.7094752841033849
 21
-0.7047303180979383
 31
0.0
 73
     1
 44
1.0
1001
ACAD
1000
MTEXTBEGIN
1070
    73
1070
     1
1070
    44
1040
1.0
1070
    74
1070
     0
1000
MTEXTEND
  0
POINT
  5
65FE
330
6367
100
AcDbEntity
  8
DEFPOINTS
 62
     0
100
AcDbPoint
 10
915.0812302093573
 20
188.2598956333723
 30
0.0
  0
POINT
  5
65FF
330
6367
100
AcDbEntity
  8
DEFPOINTS
 62
     0
100
AcDbPoint
 10
917.0702325680094
 20
189.259216212928
 30
0.0
  0
POINT
  5
6600
330
6367
100
AcDbEntity
  8
DEFPOINTS
 62
     0
100
AcDbPoint
 10
886.984867778715
 20
189.3507668936785
 30
0.0
  0
POINT
  5
6601
330
6367
100
AcDbEntity
  8
DEFPOINTS
 62
     0
100
AcDbPoint
 10
917.1684173957828
 20
189.3507668936786
 30
0.0
  0
POINT
  5
6602
330
6367
100
AcDbEntity
  8
DEFPOINTS
 62
     0
100
AcDbPoint
 10
916.4767088747385
 20
180.7822527711964
 30
0.0
  0
ENDBLK
  5
6369
330
6367
100
AcDbEntity
  8
0
100
AcDbBlockEnd
  0
BLOCK
  5
6491
330
6490
100
AcDbEntity
  8
0
100
AcDbBlockBegin
  2
*D23
 70
     1
 10
0.0
 20
0.0
 30
0.0
  3
*D23
  1

  0
LINE
  5
64D1
330
6490
100
AcDbEntity
  8
标注
370
    -2
100
AcDbLine
 10
887.0766425873073
 20
148.0191911201142
 30
0.0
 11
887.0766425873073
 21
145.8111000468652
 31
0.0
  0
LINE
  5
64D2
330
6490
100
AcDbEntity
  8
标注
370
    -2
100
AcDbLine
 10
917.0766425871716
 20
148.0191911201334
 30
0.0
 11
917.0766425871716
 21
145.8111000468652
 31
0.0
  0
LINE
  5
64D3
330
6490
100
AcDbEntity
  8
标注
370
    -2
100
AcDbLine
 10
887.7266425873072
 20
146.1311000468652
 30
0.0
 11
901.1508069801454
 21
146.1311000468652
 31
0.0
  0
LINE
  5
64D4
330
6490
100
AcDbEntity
  8
标注
370
    -2
100
AcDbLine
 10
916.4266425871716
 20
146.1311000468652
 30
0.0
 11
903.0024781943337
 21
146.1311000468652
 31
0.0
  0
SOLID
  5
64D5
330
6490
100
AcDbEntity
  8
标注
100
AcDbTrace
 10
887.7266425873072
 20
146.2394333801985
 30
0.0
 11
887.7266425873072
 21
146.0227667135319
 31
0.0
 12
887.0766425873073
 22
146.1311000468652
 32
0.0
 13
887.0766425873073
 23
146.1311000468652
 33
0.0
  0
SOLID
  5
64D6
330
6490
100
AcDbEntity
  8
标注
100
AcDbTrace
 10
916.4266425871716
 20
146.2394333801985
 30
0.0
 11
916.4266425871716
 21
146.0227667135319
 31
0.0
 12
917.0766425871716
 22
146.1311000468652
 32
0.0
 13
917.0766425871716
 23
146.1311000468652
 33
0.0
  0
MTEXT
  5
64D7
330
6490
100
AcDbEntity
  8
标注
100
AcDbMText
 10
902.0766425872396
 20
146.1311000468652
 30
0.0
 40
0.65
 41
0.0
 71
     5
 72
     1
  1
\A1;30"
 73
     1
 44
1.0
1001
ACAD
1000
MTEXTBEGIN
1070
    73
1070
     1
1070
    44
1040
1.0
1070
    74
1070
     0
1000
MTEXTEND
  0
POINT
  5
64D8
330
6490
100
AcDbEntity
  8
DEFPOINTS
 62
     0
100
AcDbPoint
 10
887.0766425873073
 20
148.8991911201142
 30
0.0
  0
POINT
  5
64D9
330
6490
100
AcDbEntity
  8
DEFPOINTS
 62
     0
100
AcDbPoint
 10
917.0766425871716
 20
148.8991911201334
 30
0.0
  0
POINT
  5
64DA
330
6490
100
AcDbEntity
  8
DEFPOINTS
 62
     0
100
AcDbPoint
 10
917.0766425871716
 20
146.1311000468652
 30
0.0
  0
ENDBLK
  5
6492
330
6490
100
AcDbEntity
  8
0
100
AcDbBlockEnd
  0
BLOCK
  5
649F
330
649E
100
AcDbEntity
  8
0
100
AcDbBlockBegin
  2
*D24
 70
     1
 10
0.0
 20
0.0
 30
0.0
  3
*D24
  1

  0
LINE
  5
64DB
330
649E
100
AcDbEntity
  8
标注
370
    -2
100
AcDbLine
 10
886.0766425873054
 20
147.4730662037651
 30
0.0
 11
886.0766425873054
 21
143.981002843118
 31
0.0
  0
LINE
  5
64DC
330
649E
100
AcDbEntity
  8
标注
370
    -2
100
AcDbLine
 10
918.0766425871906
 20
147.4730662037651
 30
0.0
 11
918.0766425871906
 21
143.981002843118
 31
0.0
  0
LINE
  5
64DD
330
649E
100
AcDbEntity
  8
标注
370
    -2
100
AcDbLine
 10
886.7266425873053
 20
144.301002843118
 30
0.0
 11
901.1508069801539
 21
144.301002843118
 31
0.0
  0
LINE
  5
64DE
330
649E
100
AcDbEntity
  8
标注
370
    -2
100
AcDbLine
 10
917.4266425871907
 20
144.301002843118
 30
0.0
 11
903.0024781943422
 21
144.301002843118
 31
0.0
  0
SOLID
  5
64DF
330
649E
100
AcDbEntity
  8
标注
100
AcDbTrace
 10
886.7266425873053
 20
144.4093361764513
 30
0.0
 11
886.7266425873053
 21
144.1926695097846
 31
0.0
 12
886.0766425873054
 22
144.301002843118
 32
0.0
 13
886.0766425873054
 23
144.301002843118
 33
0.0
  0
SOLID
  5
64E0
330
649E
100
AcDbEntity
  8
标注
100
AcDbTrace
 10
917.4266425871907
 20
144.4093361764513
 30
0.0
 11
917.4266425871907
 21
144.1926695097846
 31
0.0
 12
918.0766425871906
 22
144.301002843118
 32
0.0
 13
918.0766425871906
 23
144.301002843118
 33
0.0
  0
MTEXT
  5
64E1
330
649E
100
AcDbEntity
  8
标注
100
AcDbMText
 10
902.0766425872482
 20
144.301002843118
 30
0.0
 40
0.65
 41
0.0
 71
     5
 72
     1
  1
\A1;32"
 73
     1
 44
1.0
1001
ACAD
1000
MTEXTBEGIN
1070
    73
1070
     1
1070
    44
1040
1.0
1070
    74
1070
     0
1000
MTEXTEND
  0
POINT
  5
64E2
330
649E
100
AcDbEntity
  8
DEFPOINTS
 62
     0
100
AcDbPoint
 10
886.0766425873054
 20
148.3530662037651
 30
0.0
  0
POINT
  5
64E3
330
649E
100
AcDbEntity
  8
DEFPOINTS
 62
     0
100
AcDbPoint
 10
918.0766425871906
 20
148.3530662037651
 30
0.0
  0
POINT
  5
64E4
330
649E
100
AcDbEntity
  8
DEFPOINTS
 62
     0
100
AcDbPoint
 10
918.0766425871906
 20
144.301002843118
 30
0.0
  0
ENDBLK
  5
64A0
330
649E
100
AcDbEntity
  8
0
100
AcDbBlockEnd
  0
BLOCK
  5
64AD
330
64AC
100
AcDbEntity
  8
0
100
AcDbBlockBegin
  2
*D25
 70
     1
 10
0.0
 20
0.0
 30
0.0
  3
*D25
  1

  0
LINE
  5
64E5
330
64AC
100
AcDbEntity
  8
标注
370
    -2
100
AcDbLine
 10
917.5629417997715
 20
148.5054903327142
 30
0.0
 11
920.1332980146004
 21
148.5054903327142
 31
0.0
  0
LINE
  5
64E6
330
64AC
100
AcDbEntity
  8
标注
370
    -2
100
AcDbLine
 10
917.5629417997715
 20
164.5054903326659
 30
0.0
 11
920.1332980146004
 21
164.5054903326659
 31
0.0
  0
LINE
  5
64E7
330
64AC
100
AcDbEntity
  8
标注
370
    -2
100
AcDbLine
 10
919.8132980146004
 20
149.1554903327142
 30
0.0
 11
919.8132980146004
 21
155.6100264854868
 31
0.0
  0
LINE
  5
64E8
330
64AC
100
AcDbEntity
  8
标注
370
    -2
100
AcDbLine
 10
919.8132980146004
 20
163.8554903326659
 30
0.0
 11
919.8132980146004
 21
157.4009541798933
 31
0.0
  0
SOLID
  5
64E9
330
64AC
100
AcDbEntity
  8
标注
100
AcDbTrace
 10
919.7049646812669
 20
149.1554903327142
 30
0.0
 11
919.9216313479338
 21
149.1554903327142
 31
0.0
 12
919.8132980146004
 22
148.5054903327142
 32
0.0
 13
919.8132980146004
 23
148.5054903327142
 33
0.0
  0
SOLID
  5
64EA
330
64AC
100
AcDbEntity
  8
标注
100
AcDbTrace
 10
919.7049646812669
 20
163.8554903326659
 30
0.0
 11
919.9216313479338
 21
163.8554903326659
 31
0.0
 12
919.8132980146004
 22
164.5054903326659
 32
0.0
 13
919.8132980146004
 23
164.5054903326659
 33
0.0
  0
MTEXT
  5
64EB
330
64AC
100
AcDbEntity
  8
标注
100
AcDbMText
 10
919.8132980146004
 20
156.5054903326902
 30
0.0
 40
0.65
 41
0.0
 71
     5
 72
     1
  1
\A1;16"
 11
0.0000000000000001
 21
1.0
 31
0.0
 73
     1
 44
1.0
1001
ACAD
1000
MTEXTBEGIN
1070
    73
1070
     1
1070
    44
1040
1.0
1070
    74
1070
     0
1000
MTEXTEND
  0
POINT
  5
64EC
330
64AC
100
AcDbEntity
  8
DEFPOINTS
 62
     0
100
AcDbPoint
 10
916.6829417997716
 20
148.5054903327142
 30
0.0
  0
POINT
  5
64ED
330
64AC
100
AcDbEntity
  8
DEFPOINTS
 62
     0
100
AcDbPoint
 10
916.6829417997716
 20
164.5054903326659
 30
0.0
  0
POINT
  5
64EE
330
64AC
100
AcDbEntity
  8
DEFPOINTS
 62
     0
100
AcDbPoint
 10
919.8132980146004
 20
164.5054903326659
 30
0.0
  0
ENDBLK
  5
64AE
330
64AC
100
AcDbEntity
  8
0
100
AcDbBlockEnd
  0
BLOCK
  5
64BB
330
64BA
100
AcDbEntity
  8
0
100
AcDbBlockBegin
  2
*D26
 70
     1
 10
0.0
 20
0.0
 30
0.0
  3
*D26
  1

  0
LINE
  5
64EF
330
64BA
100
AcDbEntity
  8
标注
370
    -2
100
AcDbLine
 10
917.9566425871716
 20
147.5054903327241
 30
0.0
 11
921.8385378403205
 21
147.5054903327241
 31
0.0
  0
LINE
  5
64F0
330
64BA
100
AcDbEntity
  8
标注
370
    -2
100
AcDbLine
 10
917.9566425871716
 20
165.5054903326368
 30
0.0
 11
921.8385378403205
 21
165.5054903326368
 31
0.0
  0
LINE
  5
64F1
330
64BA
100
AcDbEntity
  8
标注
370
    -2
100
AcDbLine
 10
921.5185378403203
 20
148.1554903327241
 30
0.0
 11
921.5185378403203
 21
155.6100264854772
 31
0.0
  0
LINE
  5
64F2
330
64BA
100
AcDbEntity
  8
标注
370
    -2
100
AcDbLine
 10
921.5185378403203
 20
164.8554903326368
 30
0.0
 11
921.5185378403203
 21
157.4009541798837
 31
0.0
  0
SOLID
  5
64F3
330
64BA
100
AcDbEntity
  8
标注
100
AcDbTrace
 10
921.410204506987
 20
148.1554903327241
 30
0.0
 11
921.6268711736535
 21
148.1554903327241
 31
0.0
 12
921.5185378403203
 22
147.5054903327241
 32
0.0
 13
921.5185378403203
 23
147.5054903327241
 33
0.0
  0
SOLID
  5
64F4
330
64BA
100
AcDbEntity
  8
标注
100
AcDbTrace
 10
921.410204506987
 20
164.8554903326368
 30
0.0
 11
921.6268711736535
 21
164.8554903326368
 31
0.0
 12
921.5185378403203
 22
165.5054903326368
 32
0.0
 13
921.5185378403203
 23
165.5054903326368
 33
0.0
  0
MTEXT
  5
64F5
330
64BA
100
AcDbEntity
  8
标注
100
AcDbMText
 10
921.5185378403203
 20
156.5054903326806
 30
0.0
 40
0.65
 41
0.0
 71
     5
 72
     1
  1
\A1;18"
 11
0.0000000000000001
 21
1.0
 31
0.0
 73
     1
 44
1.0
1001
ACAD
1000
MTEXTBEGIN
1070
    73
1070
     1
1070
    44
1040
1.0
1070
    74
1070
     0
1000
MTEXTEND
  0
POINT
  5
64F6
330
64BA
100
AcDbEntity
  8
DEFPOINTS
 62
     0
100
AcDbPoint
 10
917.0766425871716
 20
147.5054903327241
 30
0.0
  0
POINT
  5
64F7
330
64BA
100
AcDbEntity
  8
DEFPOINTS
 62
     0
100
AcDbPoint
 10
917.0766425871716
 20
165.5054903326368
 30
0.0
  0
POINT
  5
64F8
330
64BA
100
AcDbEntity
  8
DEFPOINTS
 62
     0
100
AcDbPoint
 10
921.5185378403203
 20
165.5054903326368
 30
0.0
  0
ENDBLK
  5
64BC
330
64BA
100
AcDbEntity
  8
0
100
AcDbBlockEnd
  0
BLOCK
  5
6512
330
6511
100
AcDbEntity
  8
0
100
AcDbBlockBegin
  2
*D29
 70
     1
 10
0.0
 20
0.0
 30
0.0
  3
*D29
  1

  0
LINE
  5
6514
330
6511
100
AcDbEntity
  8
标注
370
    -2
100
AcDbLine
 10
886.6401425266429
 20
164.7443066481846
 30
0.0
 11
886.1231068419426
 21
165.1382280880004
 31
0.0
  0
MTEXT
  5
6515
330
6511
100
AcDbEntity
  8
标注
100
AcDbMText
 10
889.1019894827174
 20
162.442202781051
 30
0.0
 40
0.65
 41
0.0
 71
     5
 72
     1
  1
\A1;R3/8"
 11
0.7954395149233493
 21
-0.6060329843321292
 31
0.0
 73
     1
 44
1.0
1001
ACAD
1000
MTEXTBEGIN
1070
    73
1070
     1
1070
    44
1040
1.0
1070
    74
1070
     0
1000
MTEXTEND
  0
LINE
  5
6516
330
6511
100
AcDbEntity
  8
标注
370
    -2
100
AcDbLine
 10
887.4703433746976
 20
164.1117895452465
 30
0.0
 11
887.1571782113431
 21
164.3503852083686
 31
0.0
  0
SOLID
  5
6517
330
6511
100
AcDbEntity
  8
标注
100
AcDbTrace
 10
886.7057960999455
 20
164.8304792623011
 30
0.0
 11
886.5744889533401
 21
164.6581340340679
 31
0.0
 12
887.1571782113431
 22
164.3503852083686
 32
0.0
 13
887.1571782113431
 23
164.3503852083686
 33
0.0
  0
POINT
  5
6518
330
6511
100
AcDbEntity
  8
DEFPOINTS
 62
     0
100
AcDbPoint
 10
887.1571782113431
 20
164.3503852083686
 30
0.0
  0
POINT
  5
6519
330
6511
100
AcDbEntity
  8
DEFPOINTS
 62
     0
100
AcDbPoint
 10
887.4703433746976
 20
164.1117895452465
 30
0.0
  0
ENDBLK
  5
6513
330
6511
100
AcDbEntity
  8
0
100
AcDbBlockEnd
  0
BLOCK
  5
6523
330
6522
100
AcDbEntity
  8
0
100
AcDbBlockBegin
  2
*D30
 70
     1
 10
0.0
 20
0.0
 30
0.0
  3
*D30
  1

  0
LINE
  5
6539
330
6522
100
AcDbEntity
  8
标注
370
    -2
100
AcDbLine
 10
918.9566425871914
 20
189.3507668936786
 30
0.0
 11
920.8301430690704
 21
189.3507668936786
 31
0.0
  0
LINE
  5
653A
330
6522
100
AcDbEntity
  8
标注
370
    -2
100
AcDbLine
 10
919.0336571372332
 20
180.4124952401894
 30
0.0
 11
920.8301430690704
 21
180.4124952401894
 31
0.0
  0
LINE
  5
653B
330
6522
100
AcDbEntity
  8
标注
370
    -2
100
AcDbLine
 10
920.5101430690703
 20
188.7007668936785
 30
0.0
 11
920.5101430690703
 21
185.5551815444238
 31
0.0
  0
LINE
  5
653C
330
6522
100
AcDbEntity
  8
标注
370
    -2
100
AcDbLine
 10
920.5101430690703
 20
181.0624952401894
 30
0.0
 11
920.5101430690703
 21
184.2080805894443
 31
0.0
  0
SOLID
  5
653D
330
6522
100
AcDbEntity
  8
标注
100
AcDbTrace
 10
920.4018097357373
 20
188.7007668936785
 30
0.0
 11
920.6184764024035
 21
188.7007668936785
 31
0.0
 12
920.5101430690703
 22
189.3507668936786
 32
0.0
 13
920.5101430690703
 23
189.3507668936786
 33
0.0
  0
SOLID
  5
653E
330
6522
100
AcDbEntity
  8
标注
100
AcDbTrace
 10
920.4018097357373
 20
181.0624952401894
 30
0.0
 11
920.6184764024035
 21
181.0624952401894
 31
0.0
 12
920.5101430690703
 22
180.4124952401894
 32
0.0
 13
920.5101430690703
 23
180.4124952401894
 33
0.0
  0
MTEXT
  5
653F
330
6522
100
AcDbEntity
  8
标注
100
AcDbMText
 10
920.5101430690703
 20
184.8816310669342
 30
0.0
 40
0.65
 41
0.0
 71
     5
 72
     1
  1
\A1;9"
 11
0.0000000000000001
 21
1.0
 31
0.0
 73
     1
 44
1.0
1001
ACAD
1000
MTEXTBEGIN
1070
    73
1070
     1
1070
    44
1040
1.0
1070
    74
1070
     0
1000
MTEXTEND
  0
POINT
  5
6540
330
6522
100
AcDbEntity
  8
DEFPOINTS
 62
     0
100
AcDbPoint
 10
918.076642587191
 20
189.3507668936786
 30
0.0
  0
POINT
  5
6541
330
6522
100
AcDbEntity
  8
DEFPOINTS
 62
     0
100
AcDbPoint
 10
918.153657137233
 20
180.4124952401894
 30
0.0
  0
POINT
  5
6542
330
6522
100
AcDbEntity
  8
DEFPOINTS
 62
     0
100
AcDbPoint
 10
920.5101430690703
 20
180.4124952401894
 30
0.0
  0
ENDBLK
  5
6524
330
6522
100
AcDbEntity
  8
0
100
AcDbBlockEnd
  0
BLOCK
  5
6555
330
6554
100
AcDbEntity
  8
0
100
AcDbBlockBegin
  2
*D31
 70
     1
 10
0.0
 20
0.0
 30
0.0
  3
*D31
  1

  0
LINE
  5
6557
330
6554
100
AcDbEntity
  8
标注
370
    -2
100
AcDbLine
 10
886.9979024298173
 20
117.2318946753836
 30
0.0
 11
886.9979024298173
 21
114.9500725505976
 31
0.0
  0
LINE
  5
6558
330
6554
100
AcDbEntity
  8
标注
370
    -2
100
AcDbLine
 10
917.1553827446516
 20
117.2318946753836
 30
0.0
 11
917.1553827446516
 21
114.9500725505976
 31
0.0
  0
LINE
  5
6559
330
6554
100
AcDbEntity
  8
标注
370
    -2
100
AcDbLine
 10
887.6479024298175
 20
115.2700725505976
 30
0.0
 11
900.3935082079712
 21
115.2700725505976
 31
0.0
  0
LINE
  5
655A
330
6554
100
AcDbEntity
  8
标注
370
    -2
100
AcDbLine
 10
916.5053827446516
 20
115.2700725505976
 30
0.0
 11
903.7597769664978
 21
115.2700725505976
 31
0.0
  0
SOLID
  5
655B
330
6554
100
AcDbEntity
  8
标注
100
AcDbTrace
 10
887.6479024298175
 20
115.3784058839309
 30
0.0
 11
887.6479024298175
 21
115.1617392172642
 31
0.0
 12
886.9979024298173
 22
115.2700725505976
 32
0.0
 13
886.9979024298173
 23
115.2700725505976
 33
0.0
  0
SOLID
  5
655C
330
6554
100
AcDbEntity
  8
标注
100
AcDbTrace
 10
916.5053827446516
 20
115.3784058839309
 30
0.0
 11
916.5053827446516
 21
115.1617392172642
 31
0.0
 12
917.1553827446516
 22
115.2700725505976
 32
0.0
 13
917.1553827446516
 23
115.2700725505976
 33
0.0
  0
MTEXT
  5
655D
330
6554
100
AcDbEntity
  8
标注
100
AcDbMText
 10
902.0766425872343
 20
115.2700725505976
 30
0.0
 40
0.65
 41
0.0
 71
     5
 72
     1
  1
\A1;30 1/8"
 73
     1
 44
1.0
1001
ACAD
1000
MTEXTBEGIN
1070
    73
1070
     1
1070
    44
1040
1.0
1070
    74
1070
     0
1000
MTEXTEND
  0
POINT
  5
655E
330
6554
100
AcDbEntity
  8
DEFPOINTS
 62
     0
100
AcDbPoint
 10
886.9979024298173
 20
118.1118946753836
 30
0.0
  0
POINT
  5
655F
330
6554
100
AcDbEntity
  8
DEFPOINTS
 62
     0
100
AcDbPoint
 10
917.1553827446516
 20
118.1118946753836
 30
0.0
  0
POINT
  5
6560
330
6554
100
AcDbEntity
  8
DEFPOINTS
 62
     0
100
AcDbPoint
 10
917.1553827446516
 20
115.2700725505976
 30
0.0
  0
ENDBLK
  5
6556
330
6554
100
AcDbEntity
  8
0
100
AcDbBlockEnd
  0
BLOCK
  5
6563
330
6562
100
AcDbEntity
  8
0
100
AcDbBlockBegin
  2
*D32
 70
     1
 10
0.0
 20
0.0
 30
0.0
  3
*D32
  1

  0
LINE
  5
6565
330
6562
100
AcDbEntity
  8
标注
370
    -2
100
AcDbLine
 10
917.5629417997715
 20
117.6394537305155
 30
0.0
 11
919.8286254658118
 21
117.6394537305155
 31
0.0
  0
LINE
  5
6566
330
6562
100
AcDbEntity
  8
标注
370
    -2
100
AcDbLine
 10
917.5629417997715
 20
133.7969340454133
 30
0.0
 11
919.8286254658118
 21
133.7969340454133
 31
0.0
  0
LINE
  5
6567
330
6562
100
AcDbEntity
  8
标注
370
    -2
100
AcDbLine
 10
919.5086254658118
 20
118.2894537305155
 30
0.0
 11
919.5086254658118
 21
124.0654312685919
 31
0.0
  0
LINE
  5
6568
330
6562
100
AcDbEntity
  8
标注
370
    -2
100
AcDbLine
 10
919.5086254658118
 20
133.1469340454133
 30
0.0
 11
919.5086254658118
 21
127.3709565073368
 31
0.0
  0
SOLID
  5
6569
330
6562
100
AcDbEntity
  8
标注
100
AcDbTrace
 10
919.4002921324782
 20
118.2894537305155
 30
0.0
 11
919.616958799145
 21
118.2894537305155
 31
0.0
 12
919.5086254658118
 22
117.6394537305155
 32
0.0
 13
919.5086254658118
 23
117.6394537305155
 33
0.0
  0
SOLID
  5
656A
330
6562
100
AcDbEntity
  8
标注
100
AcDbTrace
 10
919.4002921324782
 20
133.1469340454133
 30
0.0
 11
919.616958799145
 21
133.1469340454133
 31
0.0
 12
919.5086254658118
 22
133.7969340454133
 32
0.0
 13
919.5086254658118
 23
133.7969340454133
 33
0.0
  0
MTEXT
  5
656B
330
6562
100
AcDbEntity
  8
标注
100
AcDbMText
 10
919.5086254658118
 20
125.7181938879645
 30
0.0
 40
0.65
 41
0.0
 71
     5
 72
     1
  1
\A1;16 1/8"
 11
0.0000000000000001
 21
1.0
 31
0.0
 73
     1
 44
1.0
1001
ACAD
1000
MTEXTBEGIN
1070
    73
1070
     1
1070
    44
1040
1.0
1070
    74
1070
     0
1000
MTEXTEND
  0
POINT
  5
656C
330
6562
100
AcDbEntity
  8
DEFPOINTS
 62
     0
100
AcDbPoint
 10
916.6829417997716
 20
117.6394537305155
 30
0.0
  0
POINT
  5
656D
330
6562
100
AcDbEntity
  8
DEFPOINTS
 62
     0
100
AcDbPoint
 10
916.6829417997716
 20
133.7969340454133
 30
0.0
  0
POINT
  5
656E
330
6562
100
AcDbEntity
  8
DEFPOINTS
 62
     0
100
AcDbPoint
 10
919.5086254658118
 20
133.7969340454133
 30
0.0
  0
ENDBLK
  5
6564
330
6562
100
AcDbEntity
  8
0
100
AcDbBlockEnd
  0
BLOCK
  5
6571
330
6570
100
AcDbEntity
  8
0
100
AcDbBlockBegin
  2
*D33
 70
     1
 10
0.0
 20
0.0
 30
0.0
  3
*D33
  1

  0
LINE
  5
6579
330
6570
100
AcDbEntity
  8
标注
370
    -2
100
AcDbLine
 10
886.6552668616254
 20
117.3401926910778
 30
0.0
 11
886.1832600839743
 21
116.8933038885204
 31
0.0
  0
MTEXT
  5
657A
330
6570
100
AcDbEntity
  8
标注
100
AcDbMText
 10
885.75682253273
 20
117.5426266678325
 30
0.0
 40
0.65
 41
0.0
 71
     5
 72
     1
  1
\A1;4-R1/2"
 11
0.7261642733098186
 21
0.6875212347036439
 31
0.0
 73
     1
 44
1.0
1001
ACAD
1000
MTEXTBEGIN
1070
    73
1070
     1
1070
    44
1040
1.0
1070
    74
1070
     0
1000
MTEXTEND
  0
LINE
  5
657B
330
6570
100
AcDbEntity
  8
标注
370
    -2
100
AcDbLine
 10
887.4703433746972
 20
118.1118946753835
 30
0.0
 11
887.1272736392766
 21
117.7870814936351
 31
0.0
  0
SOLID
  5
657C
330
6570
100
AcDbEntity
  8
标注
100
AcDbTrace
 10
886.5807853945327
 20
117.4188604873529
 30
0.0
 11
886.7297483287185
 21
117.2615248948025
 31
0.0
 12
887.1272736392766
 22
117.7870814936351
 32
0.0
 13
887.1272736392766
 23
117.7870814936351
 33
0.0
  0
POINT
  5
657D
330
6570
100
AcDbEntity
  8
DEFPOINTS
 62
     0
100
AcDbPoint
 10
887.1272736392766
 20
117.7870814936351
 30
0.0
  0
POINT
  5
657E
330
6570
100
AcDbEntity
  8
DEFPOINTS
 62
     0
100
AcDbPoint
 10
887.4703433746972
 20
118.1118946753835
 30
0.0
  0
ENDBLK
  5
6572
330
6570
100
AcDbEntity
  8
0
100
AcDbBlockEnd
  0
BLOCK
  5
66C5
330
66C4
100
AcDbEntity
  8
0
100
AcDbBlockBegin
  2
*D35
 70
     1
 10
0.0
 20
0.0
 30
0.0
  3
*D35
  1

  0
LINE
  5
66D1
330
66C4
100
AcDbEntity
  8
标注
370
    -2
100
AcDbLine
 10
940.8409989784397
 20
145.553705621157
 30
0.0
 11
940.8409989784397
 21
142.8302297639254
 31
0.0
  0
LINE
  5
66D2
330
66C4
100
AcDbEntity
  8
标注
370
    -2
100
AcDbLine
 10
970.8409389784391
 20
145.553705621157
 30
0.0
 11
970.8409389784391
 21
142.8302297639254
 31
0.0
  0
LINE
  5
66D3
330
66C4
100
AcDbEntity
  8
标注
370
    -2
100
AcDbLine
 10
941.4909989784398
 20
143.1502297639253
 30
0.0
 11
954.9151333713453
 21
143.1502297639253
 31
0.0
  0
LINE
  5
66D4
330
66C4
100
AcDbEntity
  8
标注
370
    -2
100
AcDbLine
 10
970.190938978439
 20
143.1502297639253
 30
0.0
 11
956.7668045855334
 21
143.1502297639253
 31
0.0
  0
SOLID
  5
66D5
330
66C4
100
AcDbEntity
  8
标注
100
AcDbTrace
 10
941.4909989784398
 20
143.2585630972587
 30
0.0
 11
941.4909989784398
 21
143.041896430592
 31
0.0
 12
940.8409989784397
 22
143.1502297639253
 32
0.0
 13
940.8409989784397
 23
143.1502297639253
 33
0.0
  0
SOLID
  5
66D6
330
66C4
100
AcDbEntity
  8
标注
100
AcDbTrace
 10
970.190938978439
 20
143.2585630972587
 30
0.0
 11
970.190938978439
 21
143.041896430592
 31
0.0
 12
970.8409389784391
 22
143.1502297639253
 32
0.0
 13
970.8409389784391
 23
143.1502297639253
 33
0.0
  0
MTEXT
  5
66D7
330
66C4
100
AcDbEntity
  8
标注
100
AcDbMText
 10
955.8409689784394
 20
143.1502297639253
 30
0.0
 40
0.65
 41
0.0
 71
     5
 72
     1
  1
\A1;30"
 73
     1
 44
1.0
1001
ACAD
1000
MTEXTBEGIN
1070
    73
1070
     1
1070
    44
1040
1.0
1070
    74
1070
     0
1000
MTEXTEND
  0
POINT
  5
66D8
330
66C4
100
AcDbEntity
  8
DEFPOINTS
 62
     0
100
AcDbPoint
 10
940.8409989784397
 20
146.433705621157
 30
0.0
  0
POINT
  5
66D9
330
66C4
100
AcDbEntity
  8
DEFPOINTS
 62
     0
100
AcDbPoint
 10
970.8409389784391
 20
146.433705621157
 30
0.0
  0
POINT
  5
66DA
330
66C4
100
AcDbEntity
  8
DEFPOINTS
 62
     0
100
AcDbPoint
 10
970.8409389784391
 20
143.1502297639253
 30
0.0
  0
ENDBLK
  5
66C6
330
66C4
100
AcDbEntity
  8
0
100
AcDbBlockEnd
  0
BLOCK
  5
66DD
330
66DC
100
AcDbEntity
  8
0
100
AcDbBlockBegin
  2
*D36
 70
     1
 10
0.0
 20
0.0
 30
0.0
  3
*D36
  1

  0
LINE
  5
66DF
330
66DC
100
AcDbEntity
  8
标注
370
    -2
100
AcDbLine
 10
939.8410009784399
 20
145.0075817970602
 30
0.0
 11
939.8410009784399
 21
141.1101512087999
 31
0.0
  0
LINE
  5
66E0
330
66DC
100
AcDbEntity
  8
标注
370
    -2
100
AcDbLine
 10
971.8409369784387
 20
145.0075817970602
 30
0.0
 11
971.8409369784387
 21
141.1101512087999
 31
0.0
  0
LINE
  5
66E1
330
66DC
100
AcDbEntity
  8
标注
370
    -2
100
AcDbLine
 10
940.49100097844
 20
141.4301512087999
 30
0.0
 11
954.9151333713453
 21
141.4301512087999
 31
0.0
  0
LINE
  5
66E2
330
66DC
100
AcDbEntity
  8
标注
370
    -2
100
AcDbLine
 10
971.1909369784388
 20
141.4301512087999
 30
0.0
 11
956.7668045855334
 21
141.4301512087999
 31
0.0
  0
SOLID
  5
66E3
330
66DC
100
AcDbEntity
  8
标注
100
AcDbTrace
 10
940.49100097844
 20
141.5384845421332
 30
0.0
 11
940.49100097844
 21
141.3218178754665
 31
0.0
 12
939.8410009784399
 22
141.4301512087999
 32
0.0
 13
939.8410009784399
 23
141.4301512087999
 33
0.0
  0
SOLID
  5
66E4
330
66DC
100
AcDbEntity
  8
标注
100
AcDbTrace
 10
971.1909369784388
 20
141.5384845421332
 30
0.0
 11
971.1909369784388
 21
141.3218178754665
 31
0.0
 12
971.8409369784387
 22
141.4301512087999
 32
0.0
 13
971.8409369784387
 23
141.4301512087999
 33
0.0
  0
MTEXT
  5
66E5
330
66DC
100
AcDbEntity
  8
标注
100
AcDbMText
 10
955.8409689784394
 20
141.4301512087999
 30
0.0
 40
0.65
 41
0.0
 71
     5
 72
     1
  1
\A1;32"
 73
     1
 44
1.0
1001
ACAD
1000
MTEXTBEGIN
1070
    73
1070
     1
1070
    44
1040
1.0
1070
    74
1070
     0
1000
MTEXTEND
  0
POINT
  5
66E6
330
66DC
100
AcDbEntity
  8
DEFPOINTS
 62
     0
100
AcDbPoint
 10
939.8410009784399
 20
145.8875817970602
 30
0.0
  0
POINT
  5
66E7
330
66DC
100
AcDbEntity
  8
DEFPOINTS
 62
     0
100
AcDbPoint
 10
971.8409369784387
 20
145.8875817970602
 30
0.0
  0
POINT
  5
66E8
330
66DC
100
AcDbEntity
  8
DEFPOINTS
 62
     0
100
AcDbPoint
 10
971.8409369784387
 20
141.4301512087999
 30
0.0
  0
ENDBLK
  5
66DE
330
66DC
100
AcDbEntity
  8
0
100
AcDbBlockEnd
  0
BLOCK
  5
66EB
330
66EA
100
AcDbEntity
  8
0
100
AcDbBlockBegin
  2
*D37
 70
     1
 10
0.0
 20
0.0
 30
0.0
  3
*D37
  1

  0
LINE
  5
66ED
330
66EA
100
AcDbEntity
  8
标注
370
    -2
100
AcDbLine
 10
971.3272389784389
 20
146.0400056211565
 30
0.0
 11
974.3691635190939
 21
146.0400056211565
 31
0.0
  0
LINE
  5
66EE
330
66EA
100
AcDbEntity
  8
标注
370
    -2
100
AcDbLine
 10
971.3272389784389
 20
162.0399736211602
 30
0.0
 11
974.3691635190939
 21
162.0399736211602
 31
0.0
  0
LINE
  5
66EF
330
66EA
100
AcDbEntity
  8
标注
370
    -2
100
AcDbLine
 10
974.049163519094
 20
146.6900056211565
 30
0.0
 11
974.049163519094
 21
153.1445257739551
 31
0.0
  0
LINE
  5
66F0
330
66EA
100
AcDbEntity
  8
标注
370
    -2
100
AcDbLine
 10
974.049163519094
 20
161.3899736211602
 30
0.0
 11
974.049163519094
 21
154.9354534683616
 31
0.0
  0
SOLID
  5
66F1
330
66EA
100
AcDbEntity
  8
标注
100
AcDbTrace
 10
973.9408301857606
 20
146.6900056211565
 30
0.0
 11
974.1574968524274
 21
146.6900056211565
 31
0.0
 12
974.049163519094
 22
146.0400056211565
 32
0.0
 13
974.049163519094
 23
146.0400056211565
 33
0.0
  0
SOLID
  5
66F2
330
66EA
100
AcDbEntity
  8
标注
100
AcDbTrace
 10
973.9408301857606
 20
161.3899736211602
 30
0.0
 11
974.1574968524274
 21
161.3899736211602
 31
0.0
 12
974.049163519094
 22
162.0399736211602
 32
0.0
 13
974.049163519094
 23
162.0399736211602
 33
0.0
  0
MTEXT
  5
66F3
330
66EA
100
AcDbEntity
  8
标注
100
AcDbMText
 10
974.049163519094
 20
154.0399896211585
 30
0.0
 40
0.65
 41
0.0
 71
     5
 72
     1
  1
\A1;16"
 11
0.0000000000000001
 21
1.0
 31
0.0
 73
     1
 44
1.0
1001
ACAD
1000
MTEXTBEGIN
1070
    73
1070
     1
1070
    44
1040
1.0
1070
    74
1070
     0
1000
MTEXTEND
  0
POINT
  5
66F4
330
66EA
100
AcDbEntity
  8
DEFPOINTS
 62
     0
100
AcDbPoint
 10
970.4472389784388
 20
146.0400056211565
 30
0.0
  0
POINT
  5
66F5
330
66EA
100
AcDbEntity
  8
DEFPOINTS
 62
     0
100
AcDbPoint
 10
970.4472389784388
 20
162.0399736211602
 30
0.0
  0
POINT
  5
66F6
330
66EA
100
AcDbEntity
  8
DEFPOINTS
 62
     0
100
AcDbPoint
 10
974.049163519094
 20
162.0399736211602
 30
0.0
  0
ENDBLK
  5
66EC
330
66EA
100
AcDbEntity
  8
0
100
AcDbBlockEnd
  0
BLOCK
  5
66F9
330
66F8
100
AcDbEntity
  8
0
100
AcDbBlockBegin
  2
*D38
 70
     1
 10
0.0
 20
0.0
 30
0.0
  3
*D38
  1

  0
LINE
  5
66FB
330
66F8
100
AcDbEntity
  8
标注
370
    -2
100
AcDbLine
 10
971.720938978439
 20
145.0400076211572
 30
0.0
 11
976.0910710973847
 21
145.0400076211572
 31
0.0
  0
LINE
  5
66FC
330
66F8
100
AcDbEntity
  8
标注
370
    -2
100
AcDbLine
 10
971.720938978439
 20
163.0399716211595
 30
0.0
 11
976.0910710973847
 21
163.0399716211595
 31
0.0
  0
LINE
  5
66FD
330
66F8
100
AcDbEntity
  8
标注
370
    -2
100
AcDbLine
 10
975.7710710973848
 20
145.6900076211572
 30
0.0
 11
975.7710710973848
 21
153.1445257739551
 31
0.0
  0
LINE
  5
66FE
330
66F8
100
AcDbEntity
  8
标注
370
    -2
100
AcDbLine
 10
975.7710710973848
 20
162.3899716211595
 30
0.0
 11
975.7710710973848
 21
154.9354534683616
 31
0.0
  0
SOLID
  5
66FF
330
66F8
100
AcDbEntity
  8
标注
100
AcDbTrace
 10
975.6627377640514
 20
145.6900076211572
 30
0.0
 11
975.879404430718
 21
145.6900076211572
 31
0.0
 12
975.7710710973848
 22
145.0400076211572
 32
0.0
 13
975.7710710973848
 23
145.0400076211572
 33
0.0
  0
SOLID
  5
6700
330
66F8
100
AcDbEntity
  8
标注
100
AcDbTrace
 10
975.6627377640514
 20
162.3899716211595
 30
0.0
 11
975.879404430718
 21
162.3899716211595
 31
0.0
 12
975.7710710973848
 22
163.0399716211595
 32
0.0
 13
975.7710710973848
 23
163.0399716211595
 33
0.0
  0
MTEXT
  5
6701
330
66F8
100
AcDbEntity
  8
标注
100
AcDbMText
 10
975.7710710973848
 20
154.0399896211585
 30
0.0
 40
0.65
 41
0.0
 71
     5
 72
     1
  1
\A1;18"
 11
0.0000000000000001
 21
1.0
 31
0.0
 73
     1
 44
1.0
1001
ACAD
1000
MTEXTBEGIN
1070
    73
1070
     1
1070
    44
1040
1.0
1070
    74
1070
     0
1000
MTEXTEND
  0
POINT
  5
6702
330
66F8
100
AcDbEntity
  8
DEFPOINTS
 62
     0
100
AcDbPoint
 10
970.8409389784391
 20
145.0400076211572
 30
0.0
  0
POINT
  5
6703
330
66F8
100
AcDbEntity
  8
DEFPOINTS
 62
     0
100
AcDbPoint
 10
970.8409389784391
 20
163.0399716211595
 30
0.0
  0
POINT
  5
6704
330
66F8
100
AcDbEntity
  8
DEFPOINTS
 62
     0
100
AcDbPoint
 10
975.7710710973848
 20
163.0399716211595
 30
0.0
  0
ENDBLK
  5
66FA
330
66F8
100
AcDbEntity
  8
0
100
AcDbBlockEnd
  0
BLOCK
  5
670E
330
670D
100
AcDbEntity
  8
0
100
AcDbBlockBegin
  2
*D39
 70
     1
 10
0.0
 20
0.0
 30
0.0
  3
*D39
  1

  0
LINE
  5
6710
330
670D
100
AcDbEntity
  8
标注
370
    -2
100
AcDbLine
 10
972.7209369784388
 20
183.852983028386
 30
0.0
 11
974.1535772730987
 21
183.852983028386
 31
0.0
  0
LINE
  5
6711
330
670D
100
AcDbEntity
  8
标注
370
    -2
100
AcDbLine
 10
972.7209369784388
 20
174.852983028386
 30
0.0
 11
974.1535772730987
 21
174.852983028386
 31
0.0
  0
LINE
  5
6712
330
670D
100
AcDbEntity
  8
标注
370
    -2
100
AcDbLine
 10
973.8335772730986
 20
183.202983028386
 30
0.0
 11
973.8335772730986
 21
180.0265335058757
 31
0.0
  0
LINE
  5
6713
330
670D
100
AcDbEntity
  8
标注
370
    -2
100
AcDbLine
 10
973.8335772730986
 20
175.502983028386
 30
0.0
 11
973.8335772730986
 21
178.6794325508962
 31
0.0
  0
SOLID
  5
6714
330
670D
100
AcDbEntity
  8
标注
100
AcDbTrace
 10
973.7252439397652
 20
183.202983028386
 30
0.0
 11
973.9419106064319
 21
183.202983028386
 31
0.0
 12
973.8335772730986
 22
183.852983028386
 32
0.0
 13
973.8335772730986
 23
183.852983028386
 33
0.0
  0
SOLID
  5
6715
330
670D
100
AcDbEntity
  8
标注
100
AcDbTrace
 10
973.7252439397652
 20
175.502983028386
 30
0.0
 11
973.9419106064319
 21
175.502983028386
 31
0.0
 12
973.8335772730986
 22
174.852983028386
 32
0.0
 13
973.8335772730986
 23
174.852983028386
 33
0.0
  0
MTEXT
  5
6716
330
670D
100
AcDbEntity
  8
标注
100
AcDbMText
 10
973.8335772730986
 20
179.3529830283862
 30
0.0
 40
0.65
 41
0.0
 71
     5
 72
     1
  1
\A1;9"
 11
0.0000000000000001
 21
1.0
 31
0.0
 73
     1
 44
1.0
1001
ACAD
1000
MTEXTBEGIN
1070
    73
1070
     1
1070
    44
1040
1.0
1070
    74
1070
     0
1000
MTEXTEND
  0
POINT
  5
6717
330
670D
100
AcDbEntity
  8
DEFPOINTS
 62
     0
100
AcDbPoint
 10
971.8409369784387
 20
183.852983028386
 30
0.0
  0
POINT
  5
6718
330
670D
100
AcDbEntity
  8
DEFPOINTS
 62
     0
100
AcDbPoint
 10
971.8409369784387
 20
174.852983028386
 30
0.0
  0
POINT
  5
6719
330
670D
100
AcDbEntity
  8
DEFPOINTS
 62
     0
100
AcDbPoint
 10
973.8335772730986
 20
174.852983028386
 30
0.0
  0
ENDBLK
  5
670F
330
670D
100
AcDbEntity
  8
0
100
AcDbBlockEnd
  0
BLOCK
  5
671C
330
671B
100
AcDbEntity
  8
0
100
AcDbBlockBegin
  2
*D40
 70
     1
 10
0.0
 20
0.0
 30
0.0
  3
*D40
  1

  0
LINE
  5
671E
330
671B
100
AcDbEntity
  8
标注
370
    -2
100
AcDbLine
 10
940.7622589784399
 20
115.5395328095732
 30
0.0
 11
940.7622589784399
 21
113.4665688411986
 31
0.0
  0
LINE
  5
671F
330
671B
100
AcDbEntity
  8
标注
370
    -2
100
AcDbLine
 10
970.9196789784398
 20
115.5395328095734
 30
0.0
 11
970.9196789784398
 21
113.4665688411986
 31
0.0
  0
LINE
  5
6720
330
671B
100
AcDbEntity
  8
标注
370
    -2
100
AcDbLine
 10
941.4122589784398
 20
113.7865688411985
 30
0.0
 11
954.1578345991766
 21
113.7865688411985
 31
0.0
  0
LINE
  5
6721
330
671B
100
AcDbEntity
  8
标注
370
    -2
100
AcDbLine
 10
970.2696789784399
 20
113.7865688411985
 30
0.0
 11
957.5241033577031
 21
113.7865688411985
 31
0.0
  0
SOLID
  5
6722
330
671B
100
AcDbEntity
  8
标注
100
AcDbTrace
 10
941.4122589784398
 20
113.8949021745319
 30
0.0
 11
941.4122589784398
 21
113.6782355078652
 31
0.0
 12
940.7622589784399
 22
113.7865688411985
 32
0.0
 13
940.7622589784399
 23
113.7865688411985
 33
0.0
  0
SOLID
  5
6723
330
671B
100
AcDbEntity
  8
标注
100
AcDbTrace
 10
970.2696789784399
 20
113.8949021745319
 30
0.0
 11
970.2696789784399
 21
113.6782355078652
 31
0.0
 12
970.9196789784398
 22
113.7865688411985
 32
0.0
 13
970.9196789784398
 23
113.7865688411985
 33
0.0
  0
MTEXT
  5
6724
330
671B
100
AcDbEntity
  8
标注
100
AcDbMText
 10
955.8409689784397
 20
113.7865688411985
 30
0.0
 40
0.65
 41
0.0
 71
     5
 72
     1
  1
\A1;30 1/8"
 73
     1
 44
1.0
1001
ACAD
1000
MTEXTBEGIN
1070
    73
1070
     1
1070
    44
1040
1.0
1070
    74
1070
     0
1000
MTEXTEND
  0
POINT
  5
6725
330
671B
100
AcDbEntity
  8
DEFPOINTS
 62
     0
100
AcDbPoint
 10
940.7622589784399
 20
116.4195328095732
 30
0.0
  0
POINT
  5
6726
330
671B
100
AcDbEntity
  8
DEFPOINTS
 62
     0
100
AcDbPoint
 10
970.9196789784398
 20
116.4195328095734
 30
0.0
  0
POINT
  5
6727
330
671B
100
AcDbEntity
  8
DEFPOINTS
 62
     0
100
AcDbPoint
 10
970.9196789784398
 20
113.7865688411985
 30
0.0
  0
ENDBLK
  5
671D
330
671B
100
AcDbEntity
  8
0
100
AcDbBlockEnd
  0
BLOCK
  5
672A
330
6729
100
AcDbEntity
  8
0
100
AcDbBlockBegin
  2
*D41
 70
     1
 10
0.0
 20
0.0
 30
0.0
  3
*D41
  1

  0
LINE
  5
672C
330
6729
100
AcDbEntity
  8
标注
370
    -2
100
AcDbLine
 10
971.3272389784393
 20
115.9470928095743
 30
0.0
 11
973.2667873336914
 21
115.9470928095743
 31
0.0
  0
LINE
  5
672D
330
6729
100
AcDbEntity
  8
标注
370
    -2
100
AcDbLine
 10
971.3272389784393
 20
132.1045408095724
 30
0.0
 11
973.2667873336914
 21
132.1045408095724
 31
0.0
  0
LINE
  5
672E
330
6729
100
AcDbEntity
  8
标注
370
    -2
100
AcDbLine
 10
972.9467873336913
 20
116.5970928095743
 30
0.0
 11
972.9467873336913
 21
122.3730541902009
 31
0.0
  0
LINE
  5
672F
330
6729
100
AcDbEntity
  8
标注
370
    -2
100
AcDbLine
 10
972.9467873336913
 20
131.4545408095724
 30
0.0
 11
972.9467873336913
 21
125.6785794289458
 31
0.0
  0
SOLID
  5
6730
330
6729
100
AcDbEntity
  8
标注
100
AcDbTrace
 10
972.8384540003581
 20
116.5970928095743
 30
0.0
 11
973.0551206670247
 21
116.5970928095743
 31
0.0
 12
972.9467873336913
 22
115.9470928095743
 32
0.0
 13
972.9467873336913
 23
115.9470928095743
 33
0.0
  0
SOLID
  5
6731
330
6729
100
AcDbEntity
  8
标注
100
AcDbTrace
 10
972.8384540003581
 20
131.4545408095724
 30
0.0
 11
973.0551206670247
 21
131.4545408095724
 31
0.0
 12
972.9467873336913
 22
132.1045408095724
 32
0.0
 13
972.9467873336913
 23
132.1045408095724
 33
0.0
  0
MTEXT
  5
6732
330
6729
100
AcDbEntity
  8
标注
100
AcDbMText
 10
972.9467873336913
 20
124.0258168095735
 30
0.0
 40
0.65
 41
0.0
 71
     5
 72
     1
  1
\A1;16 1/8"
 11
0.0000000000000001
 21
1.0
 31
0.0
 73
     1
 44
1.0
1001
ACAD
1000
MTEXTBEGIN
1070
    73
1070
     1
1070
    44
1040
1.0
1070
    74
1070
     0
1000
MTEXTEND
  0
POINT
  5
6733
330
6729
100
AcDbEntity
  8
DEFPOINTS
 62
     0
100
AcDbPoint
 10
970.4472389784394
 20
115.9470928095743
 30
0.0
  0
POINT
  5
6734
330
6729
100
AcDbEntity
  8
DEFPOINTS
 62
     0
100
AcDbPoint
 10
970.4472389784394
 20
132.1045408095724
 30
0.0
  0
POINT
  5
6735
330
6729
100
AcDbEntity
  8
DEFPOINTS
 62
     0
100
AcDbPoint
 10
972.9467873336913
 20
132.1045408095724
 30
0.0
  0
ENDBLK
  5
672B
330
6729
100
AcDbEntity
  8
0
100
AcDbBlockEnd
  0
BLOCK
  5
67E7
330
67E6
100
AcDbEntity
  8
0
100
AcDbBlockBegin
  2
*D43
 70
     1
 10
0.0
 20
0.0
 30
0.0
  3
*D43
  1

  0
LINE
  5
67E9
330
67E6
100
AcDbEntity
  8
标注
370
    -2
100
AcDbLine
 10
993.6284728640483
 20
114.9626238900646
 30
0.0
 11
993.6284728640483
 21
113.1619146632955
 31
0.0
  0
LINE
  5
67EA
330
67E6
100
AcDbEntity
  8
标注
370
    -2
100
AcDbLine
 10
1021.785896864052
 20
114.9626238900646
 30
0.0
 11
1021.785896864052
 21
113.1619146632955
 31
0.0
  0
LINE
  5
67EB
330
67E6
100
AcDbEntity
  8
标注
370
    -2
100
AcDbLine
 10
994.2784728640482
 20
113.4819146632954
 30
0.0
 11
1006.018286501158
 21
113.4819146632954
 31
0.0
  0
LINE
  5
67EC
330
67E6
100
AcDbEntity
  8
标注
370
    -2
100
AcDbLine
 10
1021.135896864053
 20
113.4819146632954
 30
0.0
 11
1009.396083226943
 21
113.4819146632954
 31
0.0
  0
SOLID
  5
67ED
330
67E6
100
AcDbEntity
  8
标注
100
AcDbTrace
 10
994.2784728640482
 20
113.5902479966288
 30
0.0
 11
994.2784728640482
 21
113.3735813299621
 31
0.0
 12
993.6284728640483
 22
113.4819146632954
 32
0.0
 13
993.6284728640483
 23
113.4819146632954
 33
0.0
  0
SOLID
  5
67EE
330
67E6
100
AcDbEntity
  8
标注
100
AcDbTrace
 10
1021.135896864053
 20
113.5902479966288
 30
0.0
 11
1021.135896864053
 21
113.3735813299621
 31
0.0
 12
1021.785896864052
 22
113.4819146632954
 32
0.0
 13
1021.785896864052
 23
113.4819146632954
 33
0.0
  0
MTEXT
  5
67EF
330
67E6
100
AcDbEntity
  8
标注
100
AcDbMText
 10
1007.70718486405
 20
113.4819146632954
 30
0.0
 40
0.65
 41
0.0
 71
     5
 72
     1
  1
\A1;28 1/8"
 73
     1
 44
1.0
1001
ACAD
1000
MTEXTBEGIN
1070
    73
1070
     1
1070
    44
1040
1.0
1070
    74
1070
     0
1000
MTEXTEND
  0
POINT
  5
67F0
330
67E6
100
AcDbEntity
  8
DEFPOINTS
 62
     0
100
AcDbPoint
 10
993.6284728640483
 20
115.8426238900646
 30
0.0
  0
POINT
  5
67F1
330
67E6
100
AcDbEntity
  8
DEFPOINTS
 62
     0
100
AcDbPoint
 10
1021.785896864052
 20
115.8426238900646
 30
0.0
  0
POINT
  5
67F2
330
67E6
100
AcDbEntity
  8
DEFPOINTS
 62
     0
100
AcDbPoint
 10
1021.785896864052
 20
113.4819146632954
 30
0.0
  0
ENDBLK
  5
67E8
330
67E6
100
AcDbEntity
  8
0
100
AcDbBlockEnd
  0
BLOCK
  5
67F5
330
67F4
100
AcDbEntity
  8
0
100
AcDbBlockBegin
  2
*D44
 70
     1
 10
0.0
 20
0.0
 30
0.0
  3
*D44
  1

  0
LINE
  5
67F7
330
67F4
100
AcDbEntity
  8
标注
370
    -2
100
AcDbLine
 10
1022.193456864069
 20
115.3701838900632
 30
0.0
 11
1024.206320946169
 21
115.3701838900632
 31
0.0
  0
LINE
  5
67F8
330
67F4
100
AcDbEntity
  8
标注
370
    -2
100
AcDbLine
 10
1022.19345686406
 20
131.5276318900649
 30
0.0
 11
1024.206320946169
 21
131.5276318900649
 31
0.0
  0
LINE
  5
67F9
330
67F4
100
AcDbEntity
  8
标注
370
    -2
100
AcDbLine
 10
1023.886320946169
 20
116.0201838900632
 30
0.0
 11
1023.886320946169
 21
121.7961452706916
 31
0.0
  0
LINE
  5
67FA
330
67F4
100
AcDbEntity
  8
标注
370
    -2
100
AcDbLine
 10
1023.886320946169
 20
130.877631890065
 30
0.0
 11
1023.886320946169
 21
125.1016705094365
 31
0.0
  0
SOLID
  5
67FB
330
67F4
100
AcDbEntity
  8
标注
100
AcDbTrace
 10
1023.777987612836
 20
116.0201838900632
 30
0.0
 11
1023.994654279503
 21
116.0201838900632
 31
0.0
 12
1023.886320946169
 22
115.3701838900632
 32
0.0
 13
1023.886320946169
 23
115.3701838900632
 33
0.0
  0
SOLID
  5
67FC
330
67F4
100
AcDbEntity
  8
标注
100
AcDbTrace
 10
1023.777987612836
 20
130.877631890065
 30
0.0
 11
1023.994654279503
 21
130.877631890065
 31
0.0
 12
1023.886320946169
 22
131.5276318900649
 32
0.0
 13
1023.886320946169
 23
131.5276318900649
 33
0.0
  0
MTEXT
  5
67FD
330
67F4
100
AcDbEntity
  8
标注
100
AcDbMText
 10
1023.886320946169
 20
123.4489078900643
 30
0.0
 40
0.65
 41
0.0
 71
     5
 72
     1
  1
\A1;16 1/8"
 11
0.0000000000000001
 21
1.0
 31
0.0
 73
     1
 44
1.0
1001
ACAD
1000
MTEXTBEGIN
1070
    73
1070
     1
1070
    44
1040
1.0
1070
    74
1070
     0
1000
MTEXTEND
  0
POINT
  5
67FE
330
67F4
100
AcDbEntity
  8
DEFPOINTS
 62
     0
100
AcDbPoint
 10
1021.313456864069
 20
115.3701838900632
 30
0.0
  0
POINT
  5
67FF
330
67F4
100
AcDbEntity
  8
DEFPOINTS
 62
     0
100
AcDbPoint
 10
1021.31345686406
 20
131.5276318900649
 30
0.0
  0
POINT
  5
6800
330
67F4
100
AcDbEntity
  8
DEFPOINTS
 62
     0
100
AcDbPoint
 10
1023.886320946169
 20
131.5276318900649
 30
0.0
  0
ENDBLK
  5
67F6
330
67F4
100
AcDbEntity
  8
0
100
AcDbBlockEnd
  0
BLOCK
  5
6803
330
6802
100
AcDbEntity
  8
0
100
AcDbBlockBegin
  2
*D45
 70
     1
 10
0.0
 20
0.0
 30
0.0
  3
*D45
  1

  0
LINE
  5
6805
330
6802
100
AcDbEntity
  8
标注
370
    -2
100
AcDbLine
 10
993.7081971140312
 20
144.7127562282162
 30
0.0
 11
993.7081971140312
 21
141.7908739137302
 31
0.0
  0
LINE
  5
6806
330
6802
100
AcDbEntity
  8
标注
370
    -2
100
AcDbLine
 10
1021.706172614084
 20
144.7127562282236
 30
0.0
 11
1021.706172614084
 21
141.7908739137302
 31
0.0
  0
LINE
  5
6807
330
6802
100
AcDbEntity
  8
标注
370
    -2
100
AcDbLine
 10
994.3581971140313
 20
142.1108739137302
 30
0.0
 11
1006.775585273334
 21
142.1108739137302
 31
0.0
  0
LINE
  5
6808
330
6802
100
AcDbEntity
  8
标注
370
    -2
100
AcDbLine
 10
1021.056172614084
 20
142.1108739137302
 30
0.0
 11
1008.63878445478
 21
142.1108739137302
 31
0.0
  0
SOLID
  5
6809
330
6802
100
AcDbEntity
  8
标注
100
AcDbTrace
 10
994.3581971140313
 20
142.2192072470635
 30
0.0
 11
994.3581971140313
 21
142.0025405803968
 31
0.0
 12
993.7081971140312
 22
142.1108739137302
 32
0.0
 13
993.7081971140312
 23
142.1108739137302
 33
0.0
  0
SOLID
  5
680A
330
6802
100
AcDbEntity
  8
标注
100
AcDbTrace
 10
1021.056172614084
 20
142.2192072470635
 30
0.0
 11
1021.056172614084
 21
142.0025405803968
 31
0.0
 12
1021.706172614084
 22
142.1108739137302
 32
0.0
 13
1021.706172614084
 23
142.1108739137302
 33
0.0
  0
MTEXT
  5
680B
330
6802
100
AcDbEntity
  8
标注
100
AcDbMText
 10
1007.707184864057
 20
142.1108739137302
 30
0.0
 40
0.65
 41
0.0
 71
     5
 72
     1
  1
\A1;28"
 73
     1
 44
1.0
1001
ACAD
1000
MTEXTBEGIN
1070
    73
1070
     1
1070
    44
1040
1.0
1070
    74
1070
     0
1000
MTEXTEND
  0
POINT
  5
680C
330
6802
100
AcDbEntity
  8
DEFPOINTS
 62
     0
100
AcDbPoint
 10
993.7081971140312
 20
145.5927562282162
 30
0.0
  0
POINT
  5
680D
330
6802
100
AcDbEntity
  8
DEFPOINTS
 62
     0
100
AcDbPoint
 10
1021.706172614084
 20
145.5927562282236
 30
0.0
  0
POINT
  5
680E
330
6802
100
AcDbEntity
  8
DEFPOINTS
 62
     0
100
AcDbPoint
 10
1021.706172614084
 20
142.1108739137302
 30
0.0
  0
ENDBLK
  5
6804
330
6802
100
AcDbEntity
  8
0
100
AcDbBlockEnd
  0
BLOCK
  5
6811
330
6810
100
AcDbEntity
  8
0
100
AcDbBlockBegin
  2
*D46
 70
     1
 10
0.0
 20
0.0
 30
0.0
  3
*D46
  1

  0
LINE
  5
6813
330
6810
100
AcDbEntity
  8
标注
370
    -2
100
AcDbLine
 10
1022.192472614084
 20
145.1990562282229
 30
0.0
 11
1024.85372177408
 21
145.1990562282229
 31
0.0
  0
LINE
  5
6814
330
6810
100
AcDbEntity
  8
标注
370
    -2
100
AcDbLine
 10
1022.192472614079
 20
161.1980793482183
 30
0.0
 11
1024.85372177408
 21
161.1980793482183
 31
0.0
  0
LINE
  5
6815
330
6810
100
AcDbEntity
  8
标注
370
    -2
100
AcDbLine
 10
1024.53372177408
 20
145.8490562282229
 30
0.0
 11
1024.53372177408
 21
152.3031039410174
 31
0.0
  0
LINE
  5
6816
330
6810
100
AcDbEntity
  8
标注
370
    -2
100
AcDbLine
 10
1024.53372177408
 20
160.5480793482183
 30
0.0
 11
1024.53372177408
 21
154.0940316354239
 31
0.0
  0
SOLID
  5
6817
330
6810
100
AcDbEntity
  8
标注
100
AcDbTrace
 10
1024.425388440747
 20
145.8490562282229
 30
0.0
 11
1024.642055107414
 21
145.8490562282229
 31
0.0
 12
1024.53372177408
 22
145.1990562282229
 32
0.0
 13
1024.53372177408
 23
145.1990562282229
 33
0.0
  0
SOLID
  5
6818
330
6810
100
AcDbEntity
  8
标注
100
AcDbTrace
 10
1024.425388440747
 20
160.5480793482183
 30
0.0
 11
1024.642055107414
 21
160.5480793482183
 31
0.0
 12
1024.53372177408
 22
161.1980793482183
 32
0.0
 13
1024.53372177408
 23
161.1980793482183
 33
0.0
  0
MTEXT
  5
6819
330
6810
100
AcDbEntity
  8
标注
100
AcDbMText
 10
1024.53372177408
 20
153.1985677882208
 30
0.0
 40
0.65
 41
0.0
 71
     5
 72
     1
  1
\A1;16"
 11
0.0000000000000001
 21
1.0
 31
0.0
 73
     1
 44
1.0
1001
ACAD
1000
MTEXTBEGIN
1070
    73
1070
     1
1070
    44
1040
1.0
1070
    74
1070
     0
1000
MTEXTEND
  0
POINT
  5
681A
330
6810
100
AcDbEntity
  8
DEFPOINTS
 62
     0
100
AcDbPoint
 10
1021.312472614084
 20
145.1990562282229
 30
0.0
  0
POINT
  5
681B
330
6810
100
AcDbEntity
  8
DEFPOINTS
 62
     0
100
AcDbPoint
 10
1021.312472614079
 20
161.1980793482183
 30
0.0
  0
POINT
  5
681C
330
6810
100
AcDbEntity
  8
DEFPOINTS
 62
     0
100
AcDbPoint
 10
1024.53372177408
 20
161.1980793482183
 30
0.0
  0
ENDBLK
  5
6812
330
6810
100
AcDbEntity
  8
0
100
AcDbBlockEnd
  0
BLOCK
  5
681F
330
681E
100
AcDbEntity
  8
0
100
AcDbBlockBegin
  2
*D47
 70
     1
 10
0.0
 20
0.0
 30
0.0
  3
*D47
  1

  0
LINE
  5
6821
330
681E
100
AcDbEntity
  8
标注
370
    -2
100
AcDbLine
 10
992.7081991140173
 20
144.1340172282157
 30
0.0
 11
992.7081991140173
 21
140.03438176584
 31
0.0
  0
LINE
  5
6822
330
681E
100
AcDbEntity
  8
标注
370
    -2
100
AcDbLine
 10
1022.706170614084
 20
144.3190562282229
 30
0.0
 11
1022.706170614084
 21
140.03438176584
 31
0.0
  0
LINE
  5
6823
330
681E
100
AcDbEntity
  8
标注
370
    -2
100
AcDbLine
 10
993.3581991140172
 20
140.35438176584
 30
0.0
 11
1006.781349256956
 21
140.35438176584
 31
0.0
  0
LINE
  5
6824
330
681E
100
AcDbEntity
  8
标注
370
    -2
100
AcDbLine
 10
1022.056170614084
 20
140.35438176584
 30
0.0
 11
1008.633020471144
 21
140.35438176584
 31
0.0
  0
SOLID
  5
6825
330
681E
100
AcDbEntity
  8
标注
100
AcDbTrace
 10
993.3581991140172
 20
140.4627150991733
 30
0.0
 11
993.3581991140172
 21
140.2460484325066
 31
0.0
 12
992.7081991140173
 22
140.35438176584
 32
0.0
 13
992.7081991140173
 23
140.35438176584
 33
0.0
  0
SOLID
  5
6826
330
681E
100
AcDbEntity
  8
标注
100
AcDbTrace
 10
1022.056170614084
 20
140.4627150991733
 30
0.0
 11
1022.056170614084
 21
140.2460484325066
 31
0.0
 12
1022.706170614084
 22
140.35438176584
 32
0.0
 13
1022.706170614084
 23
140.35438176584
 33
0.0
  0
MTEXT
  5
6827
330
681E
100
AcDbEntity
  8
标注
100
AcDbMText
 10
1007.70718486405
 20
140.35438176584
 30
0.0
 40
0.65
 41
0.0
 71
     5
 72
     1
  1
\A1;30"
 73
     1
 44
1.0
1001
ACAD
1000
MTEXTBEGIN
1070
    73
1070
     1
1070
    44
1040
1.0
1070
    74
1070
     0
1000
MTEXTEND
  0
POINT
  5
6828
330
681E
100
AcDbEntity
  8
DEFPOINTS
 62
     0
100
AcDbPoint
 10
992.7081991140173
 20
145.0140172282157
 30
0.0
  0
POINT
  5
6829
330
681E
100
AcDbEntity
  8
DEFPOINTS
 62
     0
100
AcDbPoint
 10
1022.706170614084
 20
145.1990562282229
 30
0.0
  0
POINT
  5
682A
330
681E
100
AcDbEntity
  8
DEFPOINTS
 62
     0
100
AcDbPoint
 10
1022.706170614084
 20
140.35438176584
 30
0.0
  0
ENDBLK
  5
6820
330
681E
100
AcDbEntity
  8
0
100
AcDbBlockEnd
  0
BLOCK
  5
682D
330
682C
100
AcDbEntity
  8
0
100
AcDbBlockBegin
  2
*D48
 70
     1
 10
0.0
 20
0.0
 30
0.0
  3
*D48
  1

  0
LINE
  5
682F
330
682C
100
AcDbEntity
  8
标注
370
    -2
100
AcDbLine
 10
1022.586172614084
 20
144.1990582282236
 30
0.0
 11
1026.454736570301
 21
144.1990582282236
 31
0.0
  0
LINE
  5
6830
330
682C
100
AcDbEntity
  8
标注
370
    -2
100
AcDbLine
 10
1022.586172614079
 20
162.1980773482176
 30
0.0
 11
1026.454736570301
 21
162.1980773482176
 31
0.0
  0
LINE
  5
6831
330
682C
100
AcDbEntity
  8
标注
370
    -2
100
AcDbLine
 10
1026.134736570301
 20
144.8490582282236
 30
0.0
 11
1026.134736570301
 21
152.3031039410173
 31
0.0
  0
LINE
  5
6832
330
682C
100
AcDbEntity
  8
标注
370
    -2
100
AcDbLine
 10
1026.134736570301
 20
161.5480773482176
 30
0.0
 11
1026.134736570301
 21
154.0940316354238
 31
0.0
  0
SOLID
  5
6833
330
682C
100
AcDbEntity
  8
标注
100
AcDbTrace
 10
1026.026403236968
 20
144.8490582282236
 30
0.0
 11
1026.243069903634
 21
144.8490582282236
 31
0.0
 12
1026.134736570301
 22
144.1990582282236
 32
0.0
 13
1026.134736570301
 23
144.1990582282236
 33
0.0
  0
SOLID
  5
6834
330
682C
100
AcDbEntity
  8
标注
100
AcDbTrace
 10
1026.026403236968
 20
161.5480773482176
 30
0.0
 11
1026.243069903634
 21
161.5480773482176
 31
0.0
 12
1026.134736570301
 22
162.1980773482176
 32
0.0
 13
1026.134736570301
 23
162.1980773482176
 33
0.0
  0
MTEXT
  5
6835
330
682C
100
AcDbEntity
  8
标注
100
AcDbMText
 10
1026.134736570301
 20
153.1985677882208
 30
0.0
 40
0.65
 41
0.0
 71
     5
 72
     1
  1
\A1;18"
 11
0.0000000000000001
 21
1.0
 31
0.0
 73
     1
 44
1.0
1001
ACAD
1000
MTEXTBEGIN
1070
    73
1070
     1
1070
    44
1040
1.0
1070
    74
1070
     0
1000
MTEXTEND
  0
POINT
  5
6836
330
682C
100
AcDbEntity
  8
DEFPOINTS
 62
     0
100
AcDbPoint
 10
1021.706172614084
 20
144.1990582282236
 30
0.0
  0
POINT
  5
6837
330
682C
100
AcDbEntity
  8
DEFPOINTS
 62
     0
100
AcDbPoint
 10
1021.706172614079
 20
162.1980773482176
 30
0.0
  0
POINT
  5
6838
330
682C
100
AcDbEntity
  8
DEFPOINTS
 62
     0
100
AcDbPoint
 10
1026.134736570301
 20
162.1980773482176
 30
0.0
  0
ENDBLK
  5
682E
330
682C
100
AcDbEntity
  8
0
100
AcDbBlockEnd
  0
BLOCK
  5
683B
330
683A
100
AcDbEntity
  8
0
100
AcDbBlockBegin
  2
*D49
 70
     1
 10
0.0
 20
0.0
 30
0.0
  3
*D49
  1

  0
LINE
  5
6847
330
683A
100
AcDbEntity
  8
标注
370
    -2
100
AcDbLine
 10
1023.586170614083
 20
183.8956547155179
 30
0.0
 11
1024.930465181551
 21
183.8956547155179
 31
0.0
  0
LINE
  5
6848
330
683A
100
AcDbEntity
  8
标注
370
    -2
100
AcDbLine
 10
1023.131474613977
 20
174.8956547155179
 30
0.0
 11
1024.930465181551
 21
174.8956547155179
 31
0.0
  0
LINE
  5
6849
330
683A
100
AcDbEntity
  8
标注
370
    -2
100
AcDbLine
 10
1024.610465181551
 20
183.2456547155179
 30
0.0
 11
1024.610465181551
 21
180.0692051930077
 31
0.0
  0
LINE
  5
684A
330
683A
100
AcDbEntity
  8
标注
370
    -2
100
AcDbLine
 10
1024.610465181551
 20
175.5456547155179
 30
0.0
 11
1024.610465181551
 21
178.7221042380282
 31
0.0
  0
SOLID
  5
684B
330
683A
100
AcDbEntity
  8
标注
100
AcDbTrace
 10
1024.502131848218
 20
183.2456547155179
 30
0.0
 11
1024.718798514885
 21
183.2456547155179
 31
0.0
 12
1024.610465181551
 22
183.8956547155179
 32
0.0
 13
1024.610465181551
 23
183.8956547155179
 33
0.0
  0
SOLID
  5
684C
330
683A
100
AcDbEntity
  8
标注
100
AcDbTrace
 10
1024.502131848218
 20
175.5456547155179
 30
0.0
 11
1024.718798514885
 21
175.5456547155179
 31
0.0
 12
1024.610465181551
 22
174.8956547155179
 32
0.0
 13
1024.610465181551
 23
174.8956547155179
 33
0.0
  0
MTEXT
  5
684D
330
683A
100
AcDbEntity
  8
标注
100
AcDbMText
 10
1024.610465181551
 20
179.3956547155181
 30
0.0
 40
0.65
 41
0.0
 71
     5
 72
     1
  1
\A1;9"
 11
0.0000000000000001
 21
1.0
 31
0.0
 73
     1
 44
1.0
1001
ACAD
1000
MTEXTBEGIN
1070
    73
1070
     1
1070
    44
1040
1.0
1070
    74
1070
     0
1000
MTEXTEND
  0
POINT
  5
684E
330
683A
100
AcDbEntity
  8
DEFPOINTS
 62
     0
100
AcDbPoint
 10
1022.706170614084
 20
183.8956547155179
 30
0.0
  0
POINT
  5
684F
330
683A
100
AcDbEntity
  8
DEFPOINTS
 62
     0
100
AcDbPoint
 10
1022.251474613977
 20
174.8956547155179
 30
0.0
  0
POINT
  5
6850
330
683A
100
AcDbEntity
  8
DEFPOINTS
 62
     0
100
AcDbPoint
 10
1024.610465181551
 20
174.8956547155179
 30
0.0
  0
ENDBLK
  5
683C
330
683A
100
AcDbEntity
  8
0
100
AcDbBlockEnd
  0
BLOCK
  5
6857
330
6856
100
AcDbEntity
  8
0
100
AcDbBlockBegin
  2
*D50
 70
     1
 10
0.0
 20
0.0
 30
0.0
  3
*D50
  1

  0
LINE
  5
685F
330
6856
100
AcDbEntity
  8
标注
370
    -2
100
AcDbLine
 10
993.2552089322594
 20
115.104615479982
 30
0.0
 11
992.7654655556301
 21
114.6772380998509
 31
0.0
  0
MTEXT
  5
6860
330
6856
100
AcDbEntity
  8
标注
100
AcDbMText
 10
994.7130790701656
 20
116.8381305720858
 30
0.0
 40
0.65
 41
0.0
 71
     5
 72
     1
  1
\A1;4-R1/2"
 11
0.7534513486605342
 21
0.6575036617400868
 31
0.0
 73
     1
 44
1.0
1001
ACAD
1000
MTEXTBEGIN
1070
    73
1070
     1
1070
    44
1040
1.0
1070
    74
1070
     0
1000
MTEXTEND
  0
LINE
  5
6861
330
6856
100
AcDbEntity
  8
标注
370
    -2
100
AcDbLine
 10
994.1009128640551
 20
115.84262389007
 30
0.0
 11
993.7449523088888
 21
115.531992860113
 31
0.0
  0
SOLID
  5
6862
330
6856
100
AcDbEntity
  8
标注
100
AcDbTrace
 10
993.1839793689043
 20
115.1862393760868
 30
0.0
 11
993.3264384956146
 21
115.022991583877
 31
0.0
 12
993.7449523088888
 22
115.531992860113
 32
0.0
 13
993.7449523088888
 23
115.531992860113
 33
0.0
  0
POINT
  5
6863
330
6856
100
AcDbEntity
  8
DEFPOINTS
 62
     0
100
AcDbPoint
 10
993.7449523088888
 20
115.531992860113
 30
0.0
  0
POINT
  5
6864
330
6856
100
AcDbEntity
  8
DEFPOINTS
 62
     0
100
AcDbPoint
 10
994.1009128640551
 20
115.84262389007
 30
0.0
  0
ENDBLK
  5
6858
330
6856
100
AcDbEntity
  8
0
100
AcDbBlockEnd
  0
BLOCK
  5
6867
330
6866
100
AcDbEntity
  8
0
100
AcDbBlockBegin
  2
*D51
 70
     1
 10
0.0
 20
0.0
 30
0.0
  3
*D51
  1

  0
LINE
  5
6869
330
6866
100
AcDbEntity
  8
标注
370
    -2
100
AcDbLine
 10
993.3139252383996
 20
144.9083513675996
 30
0.0
 11
992.8231887057261
 21
144.4821147484554
 31
0.0
  0
MTEXT
  5
686A
330
6866
100
AcDbEntity
  8
标注
100
AcDbMText
 10
994.761383813957
 20
146.6676694712519
 30
0.0
 40
0.65
 41
0.0
 71
     5
 72
     1
  1
\A1;R3/8"
 11
0.7549792810362872
 21
0.6557486448372816
 31
0.0
 73
     1
 44
1.0
1001
ACAD
1000
MTEXTBEGIN
1070
    73
1070
     1
1070
    44
1040
1.0
1070
    74
1070
     0
1000
MTEXTEND
  0
LINE
  5
686B
330
6866
100
AcDbEntity
  8
标注
370
    -2
100
AcDbLine
 10
994.1018971140172
 20
145.5927562282162
 30
0.0
 11
993.8046617710732
 21
145.3345879867438
 31
0.0
  0
SOLID
  5
686C
330
6866
100
AcDbEntity
  8
标注
100
AcDbTrace
 10
993.2428858018754
 20
144.9901407897118
 30
0.0
 11
993.3849646749235
 21
144.8265619454873
 31
0.0
 12
993.8046617710732
 22
145.3345879867438
 32
0.0
 13
993.8046617710732
 23
145.3345879867438
 33
0.0
  0
POINT
  5
686D
330
6866
100
AcDbEntity
  8
DEFPOINTS
 62
     0
100
AcDbPoint
 10
993.8046617710732
 20
145.3345879867438
 30
0.0
  0
POINT
  5
686E
330
6866
100
AcDbEntity
  8
DEFPOINTS
 62
     0
100
AcDbPoint
 10
994.1018971140172
 20
145.5927562282162
 30
0.0
  0
ENDBLK
  5
6868
330
6866
100
AcDbEntity
  8
0
100
AcDbBlockEnd
  0
BLOCK
  5
6871
330
6870
100
AcDbEntity
  8
0
100
AcDbBlockBegin
  2
*D52
 70
     1
 10
0.0
 20
0.0
 30
0.0
  3
*D52
  1

  0
LINE
  5
6873
330
6870
100
AcDbEntity
  8
标注
370
    -2
100
AcDbLine
 10
993.4443939892851
 20
174.5414494398068
 30
0.0
 11
993.0349113495651
 21
174.0366485208616
 31
0.0
  0
MTEXT
  5
6874
330
6870
100
AcDbEntity
  8
标注
100
AcDbMText
 10
994.6592630545215
 20
176.5484946290674
 30
0.0
 40
0.65
 41
0.0
 71
     5
 72
     1
  1
\A1;R3/8"
 11
0.6299732918770503
 21
0.7766167983771616
 31
0.0
 73
     1
 44
1.0
1001
ACAD
1000
MTEXTBEGIN
1070
    73
1070
     1
1070
    44
1040
1.0
1070
    74
1070
     0
1000
MTEXTEND
  0
LINE
  5
6875
330
6870
100
AcDbEntity
  8
标注
370
    -2
100
AcDbLine
 10
994.1018971140172
 20
175.3520043922728
 30
0.0
 11
993.8538766290053
 21
175.0462503587518
 31
0.0
  0
SOLID
  5
6876
330
6870
100
AcDbEntity
  8
标注
100
AcDbTrace
 10
993.3602605027942
 20
174.6096965464268
 30
0.0
 11
993.528527475776
 21
174.4732023331868
 31
0.0
 12
993.8538766290053
 22
175.0462503587518
 32
0.0
 13
993.8538766290053
 23
175.0462503587518
 33
0.0
  0
POINT
  5
6877
330
6870
100
AcDbEntity
  8
DEFPOINTS
 62
     0
100
AcDbPoint
 10
993.8538766290053
 20
175.0462503587518
 30
0.0
  0
POINT
  5
6878
330
6870
100
AcDbEntity
  8
DEFPOINTS
 62
     0
100
AcDbPoint
 10
994.1018971140172
 20
175.3520043922728
 30
0.0
  0
ENDBLK
  5
6872
330
6870
100
AcDbEntity
  8
0
100
AcDbBlockEnd
  0
ENDSEC
  0
SECTION
  2
ENTITIES
  0
LINE
  5
679D
330
5F6E
100
AcDbEntity
  8
0
100
AcDbLine
 10
1021.891211614073
 20
144.1990582282236
 30
0.0
 11
993.5231581140277
 21
144.1990582282163
 31
0.0
  0
LINE
  5
679E
330
5F6E
100
AcDbEntity
  8
0
100
AcDbLine
 10
992.7081991140173
 20
145.0140172282157
 30
0.0
 11
993.5231581140277
 21
144.1990582282163
 31
0.0
  0
LINE
  5
679F
330
5F6E
100
AcDbEntity
  8
0
 48
5.0
100
AcDbLine
 10
993.5231581140277
 20
162.1980773482104
 30
0.0
 11
1021.891211614102
 21
162.1980773482176
 31
0.0
  0
LINE
  5
67A0
330
5F6E
100
AcDbEntity
  8
0
 48
5.0
100
AcDbLine
 10
992.7081991140173
 20
161.383118348211
 30
0.0
 11
993.5231581140277
 21
162.1980773482104
 31
0.0
  0
LINE
  5
67A1
330
5F6E
100
AcDbEntity
  8
0
 48
5.0
100
AcDbLine
 10
1022.706170614084
 20
161.3831183482147
 30
0.0
 11
1021.891211614102
 21
162.1980773482176
 31
0.0
  0
LINE
  5
67A2
330
5F6E
100
AcDbEntity
  8
0
100
AcDbLine
 10
992.7081991140173
 20
161.383118348211
 30
0.0
 11
992.7081991140173
 21
145.0140172282157
 31
0.0
  0
LINE
  5
67A3
330
5F6E
100
AcDbEntity
  8
0
100
AcDbLine
 10
994.1018971140172
 20
145.1990562282157
 30
0.0
 11
1021.312472614084
 21
145.1990562282229
 31
0.0
  0
LINE
  5
67A4
330
5F6E
100
AcDbEntity
  8
0
100
AcDbLine
 10
1021.312472614084
 20
161.1980793482183
 30
0.0
 11
994.1018971140172
 21
161.1980793482111
 31
0.0
  0
ARC
  5
67A5
330
5F6E
100
AcDbEntity
  8
0
100
AcDbCircle
 10
994.1018971140172
 20
160.8043793482105
 30
0.0
 40
0.3937
100
AcDbArc
 50
90.0
 51
180.0
  0
LINE
  5
67A6
330
5F6E
100
AcDbEntity
  8
0
 48
5.0
100
AcDbLine
 10
1021.706664739092
 20
155.0861235408268
 30
0.0
 11
1021.706664739092
 21
155.0861235408268
 31
0.0
  0
REGION
  5
67A7
330
5F6E
100
AcDbEntity
  8
0
100
AcDbModelerGeometry
 70
     1
  1
koo nn n o          
  1
ni ^ *+0;:,4 ^ *+0\^ [ nh ^ LR nmqoqnqgmo QK o  
  1
mjqlffffffffffffff fqfffffffffffffffj:rooh n:rono 
  1
=0;& {rn {n {rn {rn |
  1
3*2/ {rn {rn {m {o |
  1
,7:33 {rn {rn {rn {l {rn {n |
  1
9><: {rn {rn {k {m {rn {j 90-(>-; ;0*=3: 0*+ |
  1
300/ {rn {rn {i {l |
  1
/3>1:r,*-9><: {rn noohqhohngkgikofkm njiqihojmflkgmnjgk o o o n oqolflhoooooooooooom o o 90-(>-;@) V V V V |
  1
<0:;8: {rn {i {i {rn {h 90-(>-; {k {rn |
  1
:;8: {rn {g {g {i {f 90-(>-; |
  1
):-+:' {rn {h {no |
  1
:336/,:r<*-): {rn noohqhohngkgikofkm njiqihojmflkgmnjgk o o o n mqmglkiooooooooool o o n V V |
  1
/061+ {rn noofqffoikkgiknoom njiqihojmflkgmnjgk o |
  0
CIRCLE
  5
67A8
330
5F6E
100
AcDbEntity
  8
细实线
100
AcDbCircle
 10
1007.707184864094
 20
156.6705293482158
 30
0.0
 40
2.16535
  0
CIRCLE
  5
67A9
330
5F6E
100
AcDbEntity
  8
0
100
AcDbCircle
 10
1007.707184864094
 20
156.6705293482158
 30
0.0
 40
1.791335
  0
LINE
  5
67AA
330
5F6E
100
AcDbEntity
  8
0
100
AcDbLine
 10
1021.706172614099
 20
160.8043793482178
 30
0.0
 11
1021.706172614099
 21
145.5927562282235
 31
0.0
  0
ARC
  5
67AB
330
5F6E
100
AcDbEntity
  8
0
100
AcDbCircle
 10
1021.312472614084
 20
160.8043793482178
 30
0.0
 40
0.3937
100
AcDbArc
 50
0.0
 51
90.0
  0
ARC
  5
67AC
330
5F6E
100
AcDbEntity
  8
0
100
AcDbCircle
 10
1021.312472614084
 20
145.5927562282235
 30
0.0
 40
0.3937
100
AcDbArc
 50
270.0
 51
0.0
  0
LINE
  5
67AD
330
5F6E
100
AcDbEntity
  8
0
100
AcDbLine
 10
993.7081971140312
 20
160.8043793482105
 30
0.0
 11
993.7081971140312
 21
145.5927562282162
 31
0.0
  0
ARC
  5
67AE
330
5F6E
100
AcDbEntity
  8
0
100
AcDbCircle
 10
994.1018971140172
 20
145.5927562282162
 30
0.0
 40
0.3937
100
AcDbArc
 50
180.0
 51
270.0
  0
LINE
  5
67AF
330
5F6E
100
AcDbEntity
  8
0
100
AcDbLine
 10
1022.706170614084
 20
161.3831183482147
 30
0.0
 11
1022.706170614084
 21
145.014017228223
 31
0.0
  0
LINE
  5
67B0
330
5F6E
100
AcDbEntity
  8
0
100
AcDbLine
 10
1021.891211614073
 20
144.1990582282236
 30
0.0
 11
1022.706170614084
 21
145.014017228223
 31
0.0
  0
LINE
  5
67B1
330
5F6E
100
AcDbEntity
  8
0
 48
5.0
100
AcDbLine
 10
992.7081991140173
 20
183.895654715507
 30
0.0
 11
993.5900871140209
 21
183.895654715507
 31
0.0
  0
LINE
  5
67B2
330
5F6E
100
AcDbEntity
  8
0
 48
5.0
100
AcDbLine
 10
992.7081991140173
 20
183.8365997155091
 30
0.0
 11
993.5900871140209
 21
183.8365997155091
 31
0.0
  0
LINE
  5
67B3
330
5F6E
100
AcDbEntity
  8
虚线
 48
5.0
100
AcDbLine
 10
993.7081971140312
 20
183.7775447155039
 30
0.0
 11
993.7081971140312
 21
175.352004392273
 31
0.0
  0
LINE
  5
67B4
330
5F6E
100
AcDbEntity
  8
0
 48
5.0
100
AcDbLine
 10
993.6491421140114
 20
183.7775447155039
 30
0.0
 11
993.6491421140114
 21
175.3512199012988
 31
0.0
  0
ARC
  5
67B5
330
5F6E
100
AcDbEntity
  8
虚线
 48
5.0
100
AcDbCircle
 10
993.5900871140209
 20
183.7775447155039
 30
0.0
 40
0.11811
100
AcDbArc
 50
0.0
 51
90.0
  0
ARC
  5
67B6
330
5F6E
100
AcDbEntity
  8
0
 48
5.0
100
AcDbCircle
 10
993.5900871140209
 20
183.7775447155039
 30
0.0
 40
0.059055
100
AcDbArc
 50
0.0
 51
90.0
  0
LINE
  5
67B7
330
5F6E
100
AcDbEntity
  8
0
 48
5.0
100
AcDbLine
 10
993.5900871140209
 20
183.895654715507
 30
0.0
 11
1021.82428261408
 21
183.8956547155179
 31
0.0
  0
LINE
  5
67B8
330
5F6E
100
AcDbEntity
  8
0
 48
5.0
100
AcDbLine
 10
1022.706170614084
 20
183.8956547155179
 30
0.0
 11
1021.82428261408
 21
183.8956547155143
 31
0.0
  0
LINE
  5
67B9
330
5F6E
100
AcDbEntity
  8
虚线
 48
5.0
100
AcDbLine
 10
1021.706172614099
 20
183.7775447155148
 30
0.0
 11
1021.706172614099
 21
175.3520043922911
 31
0.0
  0
ARC
  5
67BA
330
5F6E
100
AcDbEntity
  8
虚线
 48
5.0
100
AcDbCircle
 10
1021.312472614084
 20
175.3520043922911
 30
0.0
 40
0.3937
100
AcDbArc
 50
271.2086650569747
 51
0.0
  0
LINE
  5
67BB
330
5F6E
100
AcDbEntity
  8
虚线
 48
5.0
100
AcDbLine
 10
1005.350729391621
 20
174.836905116514
 30
0.0
 11
1010.063640858485
 21
174.836905116514
 31
0.0
  0
LINE
  5
67BC
330
5F6E
100
AcDbEntity
  8
中心线
 48
2.0
100
AcDbLine
 10
1007.707184864094
 20
173.2086260449654
 30
0.0
 11
1007.707184864094
 21
176.6866442810827
 31
0.0
  0
ARC
  5
67BD
330
5F6E
100
AcDbEntity
  8
虚线
 48
5.0
100
AcDbCircle
 10
1010.063640858485
 20
174.7187951165146
 30
0.0
 40
0.11811
100
AcDbArc
 50
90.0
 51
153.4349489362752
  0
ARC
  5
67BE
330
5F6E
100
AcDbEntity
  8
虚线
 48
5.0
100
AcDbCircle
 10
1005.350728869703
 20
174.7187951165146
 30
0.0
 40
0.11811
100
AcDbArc
 50
26.56505132883696
 51
90.0
  0
ARC
  5
67BF
330
5F6E
100
AcDbEntity
  8
虚线
 48
5.0
100
AcDbCircle
 10
1009.836036866882
 20
174.6597401165167
 30
0.0
 40
0.059055
100
AcDbArc
 50
270.0000000416882
 51
333.4349483538519
  0
ARC
  5
67C0
330
5F6E
100
AcDbEntity
  8
虚线
 48
5.0
100
AcDbCircle
 10
1005.578332861306
 20
174.6597401165167
 30
0.0
 40
0.059055
100
AcDbArc
 50
206.5650522239128
 51
269.9999999583118
  0
LINE
  5
67C1
330
5F6E
100
AcDbEntity
  8
虚线
 48
5.0
100
AcDbLine
 10
1005.525512463532
 20
174.6333299176552
 30
0.0
 11
1005.456369665221
 21
174.7716155142956
 31
0.0
  0
LINE
  5
67C2
330
5F6E
100
AcDbEntity
  8
虚线
 48
5.0
100
AcDbLine
 10
1009.836036866882
 20
174.6006851165151
 30
0.0
 11
1009.478834864104
 21
174.6006851165151
 31
0.0
  0
LINE
  5
67C3
330
5F6E
100
AcDbEntity
  8
虚线
 48
5.0
100
AcDbLine
 10
1005.935534864084
 20
174.5416301165172
 30
0.0
 11
1005.935534864084
 21
174.6006851165151
 31
0.0
  0
LINE
  5
67C4
330
5F6E
100
AcDbEntity
  8
虚线
 48
5.0
100
AcDbLine
 10
1009.888857264656
 20
174.6333299176552
 30
0.0
 11
1009.958000062967
 21
174.7716155142956
 31
0.0
  0
LINE
  5
67C5
330
5F6E
100
AcDbEntity
  8
虚线
 48
5.0
100
AcDbLine
 10
1009.478834864104
 20
174.5416301165172
 30
0.0
 11
1009.478834864104
 21
174.6006851165151
 31
0.0
  0
LINE
  5
67C6
330
5F6E
100
AcDbEntity
  8
虚线
 48
5.0
100
AcDbLine
 10
1005.935534864084
 20
174.6006851165151
 30
0.0
 11
1005.578332861306
 21
174.6006851165151
 31
0.0
  0
LINE
  5
67C7
330
5F6E
100
AcDbEntity
  8
虚线
 48
5.0
100
AcDbLine
 10
1009.478834864104
 20
174.6006851165151
 30
0.0
 11
1005.935534864084
 21
174.6006851165151
 31
0.0
  0
LINE
  5
67C8
330
5F6E
100
AcDbEntity
  8
0
 48
5.0
100
AcDbLine
 10
1009.941677662401
 20
174.606919718772
 30
0.0
 11
1010.010820460741
 21
174.7452053154123
 31
0.0
  0
ARC
  5
67C9
330
5F6E
100
AcDbEntity
  8
0
 48
5.0
100
AcDbCircle
 10
1010.063640858485
 20
174.7187951165146
 30
0.0
 40
0.059055
100
AcDbArc
 50
90.0
 51
153.4349489362752
  0
ARC
  5
67CA
330
5F6E
100
AcDbEntity
  8
0
 48
5.0
100
AcDbCircle
 10
1009.836036866882
 20
174.6597401165167
 30
0.0
 40
0.11811
100
AcDbArc
 50
270.0000000416882
 51
333.4349483538519
  0
LINE
  5
67CB
330
5F6E
100
AcDbEntity
  8
0
 48
5.0
100
AcDbLine
 10
1009.836036866882
 20
174.5416301165172
 30
0.0
 11
1009.478834864104
 21
174.5416301165172
 31
0.0
  0
LINE
  5
67CC
330
5F6E
100
AcDbEntity
  8
0
 48
5.0
100
AcDbLine
 10
1009.478834864104
 20
174.5416301165172
 30
0.0
 11
1005.935534864084
 21
174.5416301165172
 31
0.0
  0
LINE
  5
67CD
330
5F6E
100
AcDbEntity
  8
0
 48
5.0
100
AcDbLine
 10
1005.935534864084
 20
174.5416301165172
 30
0.0
 11
1005.578332861306
 21
174.5416301165172
 31
0.0
  0
ARC
  5
67CE
330
5F6E
100
AcDbEntity
  8
0
 48
5.0
100
AcDbCircle
 10
1005.578332861306
 20
174.6597401165167
 30
0.0
 40
0.11811
100
AcDbArc
 50
206.5650522239128
 51
269.9999999583118
  0
LINE
  5
67CF
330
5F6E
100
AcDbEntity
  8
0
 48
5.0
100
AcDbLine
 10
1005.472692065787
 20
174.606919718772
 30
0.0
 11
1005.403549267447
 21
174.7452053154123
 31
0.0
  0
ARC
  5
67D0
330
5F6E
100
AcDbEntity
  8
0
 48
5.0
100
AcDbCircle
 10
1005.350728869703
 20
174.7187951165146
 30
0.0
 40
0.059055
100
AcDbArc
 50
26.56505132883696
 51
90.0
  0
LINE
  5
67D1
330
5F6E
100
AcDbEntity
  8
0
 48
5.0
100
AcDbLine
 10
1022.706170614084
 20
183.8365997155164
 30
0.0
 11
1021.82428261408
 21
183.8365997155164
 31
0.0
  0
LINE
  5
67D2
330
5F6E
100
AcDbEntity
  8
0
 48
5.0
100
AcDbLine
 10
1021.765227614089
 20
183.7775447155148
 30
0.0
 11
1021.765227614089
 21
175.351219901317
 31
0.0
  0
ARC
  5
67D3
330
5F6E
100
AcDbEntity
  8
0
 48
5.0
100
AcDbCircle
 10
1021.312472614084
 20
175.351219901317
 30
0.0
 40
0.452755
100
AcDbArc
 50
271.2007334658354
 51
0.0
  0
LINE
  5
67D4
330
5F6E
100
AcDbEntity
  8
0
 48
5.0
100
AcDbLine
 10
1022.706170614084
 20
183.8956547155179
 30
0.0
 11
1022.706170614084
 21
183.8365997155164
 31
0.0
  0
ARC
  5
67D5
330
5F6E
100
AcDbEntity
  8
虚线
 48
5.0
100
AcDbCircle
 10
1021.82428261408
 20
183.7775447155148
 30
0.0
 40
0.11811
100
AcDbArc
 50
90.0
 51
180.0
  0
ARC
  5
67D6
330
5F6E
100
AcDbEntity
  8
0
 48
5.0
100
AcDbCircle
 10
1021.82428261408
 20
183.7775447155148
 30
0.0
 40
0.059055
100
AcDbArc
 50
90.0
 51
180.0
  0
LINE
  5
67D7
330
5F6E
100
AcDbEntity
  8
0
100
AcDbLine
 10
994.2987471140247
 20
145.7896062282165
 30
0.0
 11
1006.060524923642
 21
155.0885367400991
 31
0.0
  0
LINE
  5
67D8
330
5F6E
100
AcDbEntity
  8
0
100
AcDbLine
 10
1005.513230243031
 20
157.3035796561383
 30
0.0
 11
994.2987471140247
 21
160.6075293482103
 31
0.0
  0
LINE
  5
67D9
330
5F6E
100
AcDbEntity
  8
虚线
 48
5.0
100
AcDbLine
 10
994.0935925556429
 20
174.9583919886212
 30
0.0
 11
1005.350728869673
 21
174.836905116514
 31
0.0
  0
ARC
  5
67DA
330
5F6E
100
AcDbEntity
  8
虚线
 48
5.0
100
AcDbCircle
 10
994.1018971140172
 20
175.352004392273
 30
0.0
 40
0.3937
100
AcDbArc
 50
180.0
 51
268.7913349430253
  0
LINE
  5
67DB
330
5F6E
100
AcDbEntity
  8
0
 48
5.0
100
AcDbLine
 10
994.0924095340331
 20
174.8985643193704
 30
0.0
 11
1005.350728869703
 21
174.7778501165161
 31
0.0
  0
ARC
  5
67DC
330
5F6E
100
AcDbEntity
  8
0
 48
5.0
100
AcDbCircle
 10
994.1018971140172
 20
175.3512199012988
 30
0.0
 40
0.452755
100
AcDbArc
 50
180.0
 51
268.7992665341646
  0
LINE
  5
67DD
330
5F6E
100
AcDbEntity
  8
虚线
 48
5.0
100
AcDbLine
 10
1021.320777172458
 20
174.9583919886357
 30
0.0
 11
1010.063640858485
 21
174.836905116514
 31
0.0
  0
LINE
  5
67DE
330
5F6E
100
AcDbEntity
  8
0
 48
5.0
100
AcDbLine
 10
1021.321960194068
 20
174.8985643193886
 30
0.0
 11
1010.063640858485
 21
174.7778501165161
 31
0.0
  0
LINE
  5
67DF
330
5F6E
100
AcDbEntity
  8
0
 48
5.0
100
AcDbLine
 10
992.7081991140173
 20
183.895654715507
 30
0.0
 11
992.7081991140173
 21
183.8365997155091
 31
0.0
  0
LINE
  5
67E0
330
5F6E
100
AcDbEntity
  8
0
 48
5.0
100
AcDbLine
 10
993.5900871140209
 20
183.8365997155091
 30
0.0
 11
1021.82428261408
 21
183.8365997155127
 31
0.0
  0
LINE
  5
67E1
330
5F6E
100
AcDbEntity
  8
0
 48
5.0
100
AcDbLine
 10
1005.350728869703
 20
174.7778501165161
 30
0.0
 11
1010.063640858485
 21
174.7778501165161
 31
0.0
  0
LINE
  5
67E2
330
5F6E
100
AcDbEntity
  8
0
100
AcDbLine
 10
1021.115622614163
 20
145.7896062282165
 30
0.0
 11
1009.353844804517
 21
155.0885367400991
 31
0.0
  0
LINE
  5
67E3
330
5F6E
100
AcDbEntity
  8
0
100
AcDbLine
 10
1009.901139485128
 20
157.3035796561383
 30
0.0
 11
1021.115622614163
 21
160.6075293482103
 31
0.0
  0
LWPOLYLINE
  5
67E4
330
5F6E
100
AcDbEntity
  8
中心线
  6
Continuous
 62
     1
100
AcDbPolyline
 90
        8
 70
     1
 43
0.0
 10
994.1009128640605
 20
115.3701838900632
 10
1021.313456864069
 20
115.3701838900632
 42
0.4142135623730951
 10
1021.785896864052
 20
115.8426238900646
 10
1021.785896864052
 20
131.0551918900636
 42
0.4142135623730951
 10
1021.313456864069
 20
131.5276318900649
 10
994.1009128640605
 20
131.5276318900649
 42
0.4142135623730951
 10
993.6284728640483
 20
131.0551918900636
 10
993.6284728640483
 20
115.8426238900646
 42
0.4142135623730951
  0
DIMENSION
  5
67E5
330
5F6E
100
AcDbEntity
  8
标注
100
AcDbDimension
  2
*D43
 10
1021.785896864052
 20
113.4819146632954
 30
0.0
 11
1007.70718486405
 21
113.4819146632954
 31
0.0
 70
    32
 71
     5
 42
28.15742400000454
  3
副本STANDARD
100
AcDbAlignedDimension
 13
993.6284728640483
 23
115.8426238900646
 33
0.0
 14
1021.785896864052
 24
115.8426238900646
 34
0.0
100
AcDbRotatedDimension
  0
DIMENSION
  5
67F3
330
5F6E
100
AcDbEntity
  8
标注
100
AcDbDimension
  2
*D44
 10
1023.886320946169
 20
131.5276318900649
 30
0.0
 11
1023.886320946169
 21
123.4489078900643
 31
0.0
 70
    32
 71
     5
 42
16.15744800000175
  3
副本STANDARD
100
AcDbAlignedDimension
 13
1021.313456864069
 23
115.3701838900632
 33
0.0
 14
1021.31345686406
 24
131.5276318900649
 34
0.0
 50
90.0
100
AcDbRotatedDimension
  0
DIMENSION
  5
6801
330
5F6E
100
AcDbEntity
  8
标注
100
AcDbDimension
  2
*D45
 10
1021.706172614084
 20
142.1108739137302
 30
0.0
 11
1007.707184864057
 21
142.1108739137302
 31
0.0
 70
    32
 71
     5
 42
27.99797550005258
  3
副本STANDARD
100
AcDbAlignedDimension
 13
993.7081971140312
 23
145.5927562282162
 33
0.0
 14
1021.706172614084
 24
145.5927562282236
 34
0.0
100
AcDbRotatedDimension
  0
DIMENSION
  5
680F
330
5F6E
100
AcDbEntity
  8
标注
100
AcDbDimension
  2
*D46
 10
1024.53372177408
 20
161.1980793482183
 30
0.0
 11
1024.53372177408
 21
153.1985677882208
 31
0.0
 70
    32
 71
     5
 42
15.9990231199954
  3
副本STANDARD
100
AcDbAlignedDimension
 13
1021.312472614084
 23
145.1990562282229
 33
0.0
 14
1021.312472614079
 24
161.1980793482183
 34
0.0
 50
90.0
100
AcDbRotatedDimension
  0
DIMENSION
  5
681D
330
5F6E
100
AcDbEntity
  8
标注
100
AcDbDimension
  2
*D47
 10
1022.706170614084
 20
140.35438176584
 30
0.0
 11
1007.70718486405
 21
140.35438176584
 31
0.0
 70
    32
 71
     5
 42
29.99797150006634
  3
副本STANDARD
100
AcDbAlignedDimension
 13
992.7081991140173
 23
145.0140172282157
 33
0.0
 14
1022.706170614084
 24
145.1990562282229
 34
0.0
100
AcDbRotatedDimension
  0
DIMENSION
  5
682B
330
5F6E
100
AcDbEntity
  8
标注
100
AcDbDimension
  2
*D48
 10
1026.134736570301
 20
162.1980773482176
 30
0.0
 11
1026.134736570301
 21
153.1985677882208
 31
0.0
 70
    32
 71
     5
 42
17.99901911999407
  3
副本STANDARD
100
AcDbAlignedDimension
 13
1021.706172614084
 23
144.1990582282236
 33
0.0
 14
1021.706172614079
 24
162.1980773482176
 34
0.0
 50
90.0
100
AcDbRotatedDimension
  0
DIMENSION
  5
6839
330
5F6E
100
AcDbEntity
  8
标注
100
AcDbDimension
  2
*D49
 10
1024.610465181551
 20
174.8956547155179
 30
0.0
 11
1024.610465181551
 21
179.3956547155181
 31
0.0
 70
    32
 71
     5
 42
9.0
  3
副本STANDARD
100
AcDbAlignedDimension
 13
1022.706170614084
 23
183.8956547155179
 33
0.0
 14
1022.251474613977
 24
174.8956547155179
 34
0.0
 50
90.0
100
AcDbRotatedDimension
  0
TEXT
  5
6851
330
5F6E
100
AcDbEntity
  8
标注
100
AcDbText
 10
1004.366444656815
 20
168.4970159897556
 30
0.0
 40
0.7874015748031497
  1
FRONT VIEW
100
AcDbText
  0
TEXT
  5
6852
330
5F6E
100
AcDbEntity
  8
标注
100
AcDbText
 10
1002.840254829338
 20
137.5473685024388
 30
0.0
 40
0.7874015748031497
  1
OVERHEAD VIEW
100
AcDbText
  0
TEXT
  5
6853
330
5F6E
100
AcDbEntity
  8
标注
100
AcDbText
 10
1009.538285871902
 20
109.4556112561487
 30
0.0
 40
0.7874015748031497
  1
 CUTOUT
100
AcDbText
  0
LINE
  5
6854
330
5F6E
100
AcDbEntity
  8
中心线
  6
Continuous
 62
     1
100
AcDbLine
 10
1001.872879791336
 20
109.7088127234535
 30
0.0
 11
1008.089684795419
 21
109.7088127234535
 31
0.0
  0
DIMENSION
  5
6855
330
5F6E
100
AcDbEntity
  8
标注
100
AcDbDimension
  2
*D50
 10
994.1009128640551
 20
115.84262389007
 30
0.0
 11
994.7130790701656
 21
116.8381305720858
 31
0.0
 70
   164
  1
4-<>
 71
     5
 42
0.4724400000068272
  3
副本STANDARD
100
AcDbRadialDimension
 15
993.7449523088888
 25
115.531992860113
 35
0.0
 40
0.0
1001
ACAD
1000
DSTYLE
1002
{
1070
   288
1070
     1
1002
}
1001
ACAD_DSTYLE_DIMRADIAL_EXTENSION
1070
   387
1070
     1
1070
   388
1040
3.141592653601343
1070
   390
1040
4.71238898039624
  0
DIMENSION
  5
6865
330
5F6E
100
AcDbEntity
  8
标注
100
AcDbDimension
  2
*D51
 10
994.1018971140172
 20
145.5927562282162
 30
0.0
 11
994.761383813957
 21
146.6676694712519
 31
0.0
 70
   164
 71
     5
 42
0.3936999999999671
  3
副本STANDARD
100
AcDbRadialDimension
 15
993.8046617710732
 25
145.3345879867438
 35
0.0
 40
0.0
1001
ACAD
1000
DSTYLE
1002
{
1070
   288
1070
     1
1002
}
1001
ACAD_DSTYLE_DIMRADIAL_EXTENSION
1070
   387
1070
     1
1070
   388
1040
3.141592653589793
1070
   390
1040
4.712388980384689
  0
DIMENSION
  5
686F
330
5F6E
100
AcDbEntity
  8
标注
100
AcDbDimension
  2
*D52
 10
994.1018971140172
 20
175.3520043922728
 30
0.0
 11
994.6592630545215
 21
176.5484946290674
 31
0.0
 70
   164
 71
     5
 42
0.3936999999998534
  3
副本STANDARD
100
AcDbRadialDimension
 15
993.8538766290053
 25
175.0462503587518
 35
0.0
 40
0.0
1001
ACAD
1000
DSTYLE
1002
{
1070
   288
1070
     1
1002
}
1001
ACAD_DSTYLE_DIMRADIAL_EXTENSION
1070
   387
1070
     1
1070
   388
1040
3.141592653589793
1070
   390
1040
4.691293795586675
  0
ENDSEC
  0
SECTION
  2
OBJECTS
  0
DICTIONARY
  5
5F06
330
0
100
AcDbDictionary
281
     1
  3
ACAD_COLOR
350
5F64
  3
ACAD_GROUP
350
5F07
  3
ACAD_LAYOUT
350
5F63
  3
ACAD_MATERIAL
350
5F0A
  3
ACAD_MLEADERSTYLE
350
5F67
  3
ACAD_MLINESTYLE
350
5F60
  3
ACAD_PLOTSETTINGS
350
5F62
  3
ACAD_PLOTSTYLENAME
350
5F08
  3
ACAD_SCALELIST
350
5F34
  3
ACAD_TABLESTYLE
350
5F65
  3
ACAD_VISUALSTYLE
350
5F23
  3
ACDB_RECOMPOSE_DATA
350
65E7
  3
AcDbVariableDictionary
350
6102
  3
DWGPROPS
350
6888
  3
lxx_dict
350
60F2
  0
DICTIONARY
  5
61B7
330
5EFC
100
AcDbDictionary
280
     1
281
     1
  3
ACAD_LAYERSTATES
360
61B8
  0
DICTIONARY
  5
60F4
330
5F56
100
AcDbDictionary
280
     1
281
     1
  3
ADSK_XREC_LAYER_RECONCILED
360
60F5
  0
DICTIONARY
  5
60F6
330
5F72
100
AcDbDictionary
280
     1
281
     1
  3
ADSK_XREC_LAYER_RECONCILED
360
60F7
  0
DICTIONARY
  5
60F8
330
5F7D
100
AcDbDictionary
280
     1
281
     1
  3
ADSK_XREC_LAYER_RECONCILED
360
60F9
  0
DICTIONARY
  5
60FA
330
5F7E
100
AcDbDictionary
280
     1
281
     1
  3
ADSK_XREC_LAYER_RECONCILED
360
60FB
  0
DICTIONARY
  5
60FC
330
5F80
100
AcDbDictionary
280
     1
281
     1
  3
ADSK_XREC_LAYER_RECONCILED
360
60FD
  0
DICTIONARY
  5
61B2
330
61B1
100
AcDbDictionary
280
     1
281
     1
  0
DICTIONARY
  5
654F
330
5F6E
100
AcDbDictionary
280
     1
281
     1
  3
ACAD_SORTENTS
360
6550
  0
DICTIONARY
  5
5F64
102
{ACAD_REACTORS
330
5F06
102
}
330
5F06
100
AcDbDictionary
281
     1
  0
DICTIONARY
  5
5F07
102
{ACAD_REACTORS
330
5F06
102
}
330
5F06
100
AcDbDictionary
281
     1
  0
DICTIONARY
  5
5F63
102
{ACAD_REACTORS
330
5F06
102
}
330
5F06
100
AcDbDictionary
281
     1
  3
Model
350
5F71
  3
布局1
350
5F6D
  0
DICTIONARY
  5
5F0A
102
{ACAD_REACTORS
330
5F06
102
}
330
5F06
100
AcDbDictionary
281
     1
  3
ByBlock
350
5F13
  3
ByLayer
350
5F0B
  3
Global
350
5F1B
  0
DICTIONARY
  5
5F67
102
{ACAD_REACTORS
330
5F06
102
}
330
5F06
100
AcDbDictionary
281
     1
  3
Standard
350
5F68
  0
DICTIONARY
  5
5F60
102
{ACAD_REACTORS
330
5F06
102
}
330
5F06
100
AcDbDictionary
281
     1
  3
Standard
350
5F61
  0
DICTIONARY
  5
5F62
102
{ACAD_REACTORS
330
5F06
102
}
330
5F06
100
AcDbDictionary
281
     1
  0
ACDBDICTIONARYWDFLT
  5
5F08
102
{ACAD_REACTORS
330
5F06
102
}
330
5F06
100
AcDbDictionary
281
     1
  3
Normal
350
5F09
100
AcDbDictionaryWithDefault
340
5F09
  0
DICTIONARY
  5
5F34
102
{ACAD_REACTORS
330
5F06
102
}
330
5F06
100
AcDbDictionary
281
     1
  3
A0
350
5F35
  3
A1
350
5F36
  3
A2
350
5F37
  3
A3
350
5F38
  3
A4
350
5F39
  3
A5
350
5F3A
  3
A6
350
5F3B
  3
A7
350
5F3C
  3
A8
350
5F3D
  3
A9
350
5F3E
  3
B0
350
5F3F
  3
B1
350
5F40
  3
B2
350
5F41
  3
B3
350
5F42
  3
B4
350
5F43
  3
B5
350
5F44
  3
B6
350
5F45
  3
B7
350
5F46
  3
B8
350
5F47
  3
B9
350
5F48
  3
C0
350
5F49
  3
C1
350
5F4A
  3
C2
350
5F4B
  3
C3
350
5F4C
  3
C4
350
5F4D
  3
C5
350
5F4E
  3
C6
350
5F4F
  3
C7
350
5F50
  3
C8
350
5F51
  3
C9
350
5F52
  3
D0
350
5F53
  3
D1
350
5F54
  3
D2
350
5F55
  0
DICTIONARY
  5
5F65
102
{ACAD_REACTORS
330
5F06
102
}
330
5F06
100
AcDbDictionary
281
     1
  3
Standard
350
5F66
  0
DICTIONARY
  5
5F23
102
{ACAD_REACTORS
330
5F06
102
}
330
5F06
100
AcDbDictionary
281
     1
  3
2dWireframe
350
5F29
  3
3D Hidden
350
5F2B
  3
3dWireframe
350
5F2A
  3
Basic
350
5F28
  3
Brighten
350
5F2F
  3
ColorChange
350
5F33
  3
Conceptual
350
5F2C
  3
Dim
350
5F2E
  3
Facepattern
350
5F32
  3
Flat
350
5F24
  3
FlatWithEdges
350
5F25
  3
Gouraud
350
5F26
  3
GouraudWithEdges
350
5F27
  3
Linepattern
350
5F31
  3
Realistic
350
5F2D
  3
Thicken
350
5F30
  0
XRECORD
  5
65E7
102
{ACAD_REACTORS
330
5F06
102
}
330
5F06
100
AcDbXrecord
280
     1
 90
        1
330
5F66
  0
DICTIONARY
  5
6102
102
{ACAD_REACTORS
330
5F06
102
}
330
5F06
100
AcDbDictionary
281
     1
  3
CANNOSCALE
350
6105
  3
CMLEADERSTYLE
350
6104
  3
CTABLESTYLE
350
6103
  3
DIMASSOC
350
6108
  3
INDEXCTL
350
6107
  3
SORTENTS
350
6106
  0
XRECORD
  5
6888
102
{ACAD_REACTORS
330
5F06
102
}
330
5F06
100
AcDbXrecord
280
     1
  1
DWGPROPS COOKIE
  2

  3

  4

  6

  7

  8
Administrator
  9

300
=
301
=
302
=
303
=
304
=
305
=
306
=
307
=
308
=
309
=
 40
0.4400920717592593
 41
2455434.724808658
 42
2458564.652904306
  1

 90
        0
  0
DICTIONARY
  5
60F2
102
{ACAD_REACTORS
330
5F06
102
}
330
5F06
100
AcDbDictionary
281
     1
  3
lxx_dimth
350
60F3
  0
DICTIONARY
  5
61B8
102
{ACAD_REACTORS
330
61B7
102
}
330
61B7
100
AcDbDictionary
281
     1
  0
XRECORD
  5
60F5
102
{ACAD_REACTORS
330
60F4
102
}
330
60F4
100
AcDbXrecord
280
     1
290
     1
  0
XRECORD
  5
60F7
102
{ACAD_REACTORS
330
60F6
102
}
330
60F6
100
AcDbXrecord
280
     1
290
     1
  0
XRECORD
  5
60F9
102
{ACAD_REACTORS
330
60F8
102
}
330
60F8
100
AcDbXrecord
280
     1
290
     1
  0
XRECORD
  5
60FB
102
{ACAD_REACTORS
330
60FA
102
}
330
60FA
100
AcDbXrecord
280
     1
290
     1
  0
XRECORD
  5
60FD
102
{ACAD_REACTORS
330
60FC
102
}
330
60FC
100
AcDbXrecord
280
     1
290
     1
  0
SORTENTSTABLE
  5
6550
102
{ACAD_REACTORS
330
654F
102
}
330
654F
100
AcDbSortentsTable
330
5F6E
  0
LAYOUT
  5
5F71
102
{ACAD_XDICTIONARY
360
688C
102
}
102
{ACAD_REACTORS
330
5F63
102
}
330
5F63
100
AcDbPlotSettings
  1

  2
\\192.168.1.64\Canon LBP2900
  4

  6

 40
0.0
 41
0.0
 42
0.0
 43
0.0
 44
0.0
 45
0.0
 46
0.0
 47
0.0
 48
0.0
 49
0.0
140
0.0
141
0.0
142
1.0
143
1.0
 70
  1712
 72
     0
 73
     0
 74
     0
  7

 75
     0
147
1.0
148
0.0
149
0.0
100
AcDbLayout
  1
Model
 70
     1
 71
     0
 10
0.0
 20
0.0
 11
12.0
 21
9.0
 12
0.0
 22
0.0
 32
0.0
 14
0.0
 24
0.0
 34
0.0
 15
0.0
 25
0.0
 35
0.0
146
0.0
 13
0.0
 23
0.0
 33
0.0
 16
1.0
 26
0.0
 36
0.0
 17
0.0
 27
1.0
 37
0.0
 76
     0
330
5F6E
331
5F73
  0
LAYOUT
  5
5F6D
102
{ACAD_XDICTIONARY
360
688A
102
}
102
{ACAD_REACTORS
330
5F63
102
}
330
5F63
100
AcDbPlotSettings
  1

  2
\\192.168.1.64\Canon LBP2900
  4

  6

 40
0.0
 41
0.0
 42
0.0
 43
0.0
 44
0.0
 45
0.0
 46
0.0
 47
0.0
 48
0.0
 49
0.0
140
0.0
141
0.0
142
1.0
143
1.0
 70
   688
 72
     0
 73
     0
 74
     5
  7

 75
    16
147
1.0
148
0.0
149
0.0
100
AcDbLayout
  1
布局1
 70
     1
 71
     1
 10
0.0
 20
0.0
 11
12.0
 21
9.0
 12
0.0
 22
0.0
 32
0.0
 14
1.000000000000000E+20
 24
1.000000000000000E+20
 34
1.000000000000000E+20
 15
-1.000000000000000E+20
 25
-1.000000000000000E+20
 35
-1.000000000000000E+20
146
0.0
 13
0.0
 23
0.0
 33
0.0
 16
1.0
 26
0.0
 36
0.0
 17
0.0
 27
1.0
 37
0.0
 76
     0
330
5F6A
  0
MATERIAL
  5
5F13
102
{ACAD_XDICTIONARY
360
5F14
102
}
102
{ACAD_REACTORS
330
5F0A
102
}
330
5F0A
100
AcDbMaterial
  1
ByBlock
 72
     0
 43
0.0208333333333333
 43
0.0
 43
0.0
 43
0.0
 43
0.0
 43
0.0208333333333333
 43
0.0
 43
0.0
 43
0.0
 43
0.0
 43
1.0
 43
0.0
 43
0.0
 43
0.0
 43
0.0
 43
1.0
 77
     0
 47
0.0208333333333333
 47
0.0
 47
0.0
 47
0.0
 47
0.0
 47
0.0208333333333333
 47
0.0
 47
0.0
 47
0.0
 47
0.0
 47
1.0
 47
0.0
 47
0.0
 47
0.0
 47
0.0
 47
1.0
171
     0
 49
0.0208333333333333
 49
0.0
 49
0.0
 49
0.0
 49
0.0
 49
0.0208333333333333
 49
0.0
 49
0.0
 49
0.0
 49
0.0
 49
1.0
 49
0.0
 49
0.0
 49
0.0
 49
0.0
 49
1.0
175
     0
142
0.0208333333333333
142
0.0
142
0.0
142
0.0
142
0.0
142
0.0208333333333333
142
0.0
142
0.0
142
0.0
142
0.0
142
1.0
142
0.0
142
0.0
142
0.0
142
0.0
142
1.0
179
     0
144
0.0208333333333333
144
0.0
144
0.0
144
0.0
144
0.0
144
0.0208333333333333
144
0.0
144
0.0
144
0.0
144
0.0
144
1.0
144
0.0
144
0.0
144
0.0
144
0.0
144
1.0
147
0.0208333333333333
147
0.0
147
0.0
147
0.0
147
0.0
147
0.0208333333333333
147
0.0
147
0.0
147
0.0
147
0.0
147
1.0
147
0.0
147
0.0
147
0.0
147
0.0
147
1.0
  0
MATERIAL
  5
5F0B
102
{ACAD_XDICTIONARY
360
5F0C
102
}
102
{ACAD_REACTORS
330
5F0A
102
}
330
5F0A
100
AcDbMaterial
  1
ByLayer
 72
     0
 43
0.0208333333333333
 43
0.0
 43
0.0
 43
0.0
 43
0.0
 43
0.0208333333333333
 43
0.0
 43
0.0
 43
0.0
 43
0.0
 43
1.0
 43
0.0
 43
0.0
 43
0.0
 43
0.0
 43
1.0
 77
     0
 47
0.0208333333333333
 47
0.0
 47
0.0
 47
0.0
 47
0.0
 47
0.0208333333333333
 47
0.0
 47
0.0
 47
0.0
 47
0.0
 47
1.0
 47
0.0
 47
0.0
 47
0.0
 47
0.0
 47
1.0
171
     0
 49
0.0208333333333333
 49
0.0
 49
0.0
 49
0.0
 49
0.0
 49
0.0208333333333333
 49
0.0
 49
0.0
 49
0.0
 49
0.0
 49
1.0
 49
0.0
 49
0.0
 49
0.0
 49
0.0
 49
1.0
175
     0
142
0.0208333333333333
142
0.0
142
0.0
142
0.0
142
0.0
142
0.0208333333333333
142
0.0
142
0.0
142
0.0
142
0.0
142
1.0
142
0.0
142
0.0
142
0.0
142
0.0
142
1.0
179
     0
144
0.0208333333333333
144
0.0
144
0.0
144
0.0
144
0.0
144
0.0208333333333333
144
0.0
144
0.0
144
0.0
144
0.0
144
1.0
144
0.0
144
0.0
144
0.0
144
0.0
144
1.0
147
0.0208333333333333
147
0.0
147
0.0
147
0.0
147
0.0
147
0.0208333333333333
147
0.0
147
0.0
147
0.0
147
0.0
147
1.0
147
0.0
147
0.0
147
0.0
147
0.0
147
1.0
  0
MATERIAL
  5
5F1B
102
{ACAD_XDICTIONARY
360
5F1C
102
}
102
{ACAD_REACTORS
330
5F0A
102
}
330
5F0A
100
AcDbMaterial
  1
Global
 72
     0
 43
0.0208333333333333
 43
0.0
 43
0.0
 43
0.0
 43
0.0
 43
0.0208333333333333
 43
0.0
 43
0.0
 43
0.0
 43
0.0
 43
1.0
 43
0.0
 43
0.0
 43
0.0
 43
0.0
 43
1.0
 77
     0
 47
0.0208333333333333
 47
0.0
 47
0.0
 47
0.0
 47
0.0
 47
0.0208333333333333
 47
0.0
 47
0.0
 47
0.0
 47
0.0
 47
1.0
 47
0.0
 47
0.0
 47
0.0
 47
0.0
 47
1.0
171
     0
 49
0.0208333333333333
 49
0.0
 49
0.0
 49
0.0
 49
0.0
 49
0.0208333333333333
 49
0.0
 49
0.0
 49
0.0
 49
0.0
 49
1.0
 49
0.0
 49
0.0
 49
0.0
 49
0.0
 49
1.0
175
     0
142
0.0208333333333333
142
0.0
142
0.0
142
0.0
142
0.0
142
0.0208333333333333
142
0.0
142
0.0
142
0.0
142
0.0
142
1.0
142
0.0
142
0.0
142
0.0
142
0.0
142
1.0
179
     0
144
0.0208333333333333
144
0.0
144
0.0
144
0.0
144
0.0
144
0.0208333333333333
144
0.0
144
0.0
144
0.0
144
0.0
144
1.0
144
0.0
144
0.0
144
0.0
144
0.0
144
1.0
147
0.0208333333333333
147
0.0
147
0.0
147
0.0
147
0.0
147
0.0208333333333333
147
0.0
147
0.0
147
0.0
147
0.0
147
1.0
147
0.0
147
0.0
147
0.0
147
0.0
147
1.0
  0
MLEADERSTYLE
  5
5F68
102
{ACAD_REACTORS
330
5F67
102
}
330
5F67
100
AcDbMLeaderStyle
170
     2
171
     1
172
     0
 90
        2
 40
0.0
 41
0.0
173
     1
 91
-1056964608
340
5F5C
 92
       -2
290
     1
 42
0.09
291
     1
 43
0.36
  3
Standard
 44
0.18
300

342
5F57
174
     1
178
     6
175
     1
176
     0
 93
-1056964608
 45
0.18
292
     0
297
     0
 46
0.18
 94
-1056964608
 47
1.0
 49
1.0
140
1.0
293
     1
141
0.0
294
     1
177
     0
142
1.0
295
     0
296
     0
143
0.125
1001
ACAD_MLEADERVER
1070
     2
  0
MLINESTYLE
  5
5F61
102
{ACAD_REACTORS
330
5F60
102
}
330
5F60
100
AcDbMlineStyle
  2
STANDARD
 70
     0
  3

 62
   256
 51
90.0
 52
90.0
 71
     2
 49
0.5
 62
   256
  6
BYLAYER
 49
-0.5
 62
   256
  6
BYLAYER
  0
ACDBPLACEHOLDER
  5
5F09
102
{ACAD_REACTORS
330
5F08
102
}
330
5F08
  0
SCALE
  5
5F35
102
{ACAD_REACTORS
330
5F34
102
}
330
5F34
100
AcDbScale
 70
     0
300
1:1
140
1.0
141
1.0
290
     1
  0
SCALE
  5
5F36
102
{ACAD_REACTORS
330
5F34
102
}
330
5F34
100
AcDbScale
 70
     0
300
1:2
140
1.0
141
2.0
290
     0
  0
SCALE
  5
5F37
102
{ACAD_REACTORS
330
5F34
102
}
330
5F34
100
AcDbScale
 70
     0
300
1:4
140
1.0
141
4.0
290
     0
  0
SCALE
  5
5F38
102
{ACAD_REACTORS
330
5F34
102
}
330
5F34
100
AcDbScale
 70
     0
300
1:5
140
1.0
141
5.0
290
     0
  0
SCALE
  5
5F39
102
{ACAD_REACTORS
330
5F34
102
}
330
5F34
100
AcDbScale
 70
     0
300
1:8
140
1.0
141
8.0
290
     0
  0
SCALE
  5
5F3A
102
{ACAD_REACTORS
330
5F34
102
}
330
5F34
100
AcDbScale
 70
     0
300
1:10
140
1.0
141
10.0
290
     0
  0
SCALE
  5
5F3B
102
{ACAD_REACTORS
330
5F34
102
}
330
5F34
100
AcDbScale
 70
     0
300
1:16
140
1.0
141
16.0
290
     0
  0
SCALE
  5
5F3C
102
{ACAD_REACTORS
330
5F34
102
}
330
5F34
100
AcDbScale
 70
     0
300
1:20
140
1.0
141
20.0
290
     0
  0
SCALE
  5
5F3D
102
{ACAD_REACTORS
330
5F34
102
}
330
5F34
100
AcDbScale
 70
     0
300
1:30
140
1.0
141
30.0
290
     0
  0
SCALE
  5
5F3E
102
{ACAD_REACTORS
330
5F34
102
}
330
5F34
100
AcDbScale
 70
     0
300
1:40
140
1.0
141
40.0
290
     0
  0
SCALE
  5
5F3F
102
{ACAD_REACTORS
330
5F34
102
}
330
5F34
100
AcDbScale
 70
     0
300
1:50
140
1.0
141
50.0
290
     0
  0
SCALE
  5
5F40
102
{ACAD_REACTORS
330
5F34
102
}
330
5F34
100
AcDbScale
 70
     0
300
1:100
140
1.0
141
100.0
290
     0
  0
SCALE
  5
5F41
102
{ACAD_REACTORS
330
5F34
102
}
330
5F34
100
AcDbScale
 70
     0
300
2:1
140
2.0
141
1.0
290
     0
  0
SCALE
  5
5F42
102
{ACAD_REACTORS
330
5F34
102
}
330
5F34
100
AcDbScale
 70
     0
300
4:1
140
4.0
141
1.0
290
     0
  0
SCALE
  5
5F43
102
{ACAD_REACTORS
330
5F34
102
}
330
5F34
100
AcDbScale
 70
     0
300
8:1
140
8.0
141
1.0
290
     0
  0
SCALE
  5
5F44
102
{ACAD_REACTORS
330
5F34
102
}
330
5F34
100
AcDbScale
 70
     0
300
10:1
140
10.0
141
1.0
290
     0
  0
SCALE
  5
5F45
102
{ACAD_REACTORS
330
5F34
102
}
330
5F34
100
AcDbScale
 70
     0
300
100:1
140
100.0
141
1.0
290
     0
  0
SCALE
  5
5F46
102
{ACAD_REACTORS
330
5F34
102
}
330
5F34
100
AcDbScale
 70
     0
300
1/128" = 1'-0"
140
0.0078125
141
12.0
290
     0
  0
SCALE
  5
5F47
102
{ACAD_REACTORS
330
5F34
102
}
330
5F34
100
AcDbScale
 70
     0
300
1/64" = 1'-0"
140
0.015625
141
12.0
290
     0
  0
SCALE
  5
5F48
102
{ACAD_REACTORS
330
5F34
102
}
330
5F34
100
AcDbScale
 70
     0
300
1/32" = 1'-0"
140
0.03125
141
12.0
290
     0
  0
SCALE
  5
5F49
102
{ACAD_REACTORS
330
5F34
102
}
330
5F34
100
AcDbScale
 70
     0
300
1/16" = 1'-0"
140
0.0625
141
12.0
290
     0
  0
SCALE
  5
5F4A
102
{ACAD_REACTORS
330
5F34
102
}
330
5F34
100
AcDbScale
 70
     0
300
3/32" = 1'-0"
140
0.09375
141
12.0
290
     0
  0
SCALE
  5
5F4B
102
{ACAD_REACTORS
330
5F34
102
}
330
5F34
100
AcDbScale
 70
     0
300
1/8" = 1'-0"
140
0.125
141
12.0
290
     0
  0
SCALE
  5
5F4C
102
{ACAD_REACTORS
330
5F34
102
}
330
5F34
100
AcDbScale
 70
     0
300
3/16" = 1'-0"
140
0.1875
141
12.0
290
     0
  0
SCALE
  5
5F4D
102
{ACAD_REACTORS
330
5F34
102
}
330
5F34
100
AcDbScale
 70
     0
300
1/4" = 1'-0"
140
0.25
141
12.0
290
     0
  0
SCALE
  5
5F4E
102
{ACAD_REACTORS
330
5F34
102
}
330
5F34
100
AcDbScale
 70
     0
300
3/8" = 1'-0"
140
0.375
141
12.0
290
     0
  0
SCALE
  5
5F4F
102
{ACAD_REACTORS
330
5F34
102
}
330
5F34
100
AcDbScale
 70
     0
300
1/2" = 1'-0"
140
0.5
141
12.0
290
     0
  0
SCALE
  5
5F50
102
{ACAD_REACTORS
330
5F34
102
}
330
5F34
100
AcDbScale
 70
     0
300
3/4" = 1'-0"
140
0.75
141
12.0
290
     0
  0
SCALE
  5
5F51
102
{ACAD_REACTORS
330
5F34
102
}
330
5F34
100
AcDbScale
 70
     0
300
1" = 1'-0"
140
1.0
141
12.0
290
     0
  0
SCALE
  5
5F52
102
{ACAD_REACTORS
330
5F34
102
}
330
5F34
100
AcDbScale
 70
     0
300
1-1/2" = 1'-0"
140
1.5
141
12.0
290
     0
  0
SCALE
  5
5F53
102
{ACAD_REACTORS
330
5F34
102
}
330
5F34
100
AcDbScale
 70
     0
300
3" = 1'-0"
140
3.0
141
12.0
290
     0
  0
SCALE
  5
5F54
102
{ACAD_REACTORS
330
5F34
102
}
330
5F34
100
AcDbScale
 70
     0
300
6" = 1'-0"
140
6.0
141
12.0
290
     0
  0
SCALE
  5
5F55
102
{ACAD_REACTORS
330
5F34
102
}
330
5F34
100
AcDbScale
 70
     0
300
1'-0" = 1'-0"
140
12.0
141
12.0
290
     0
  0
TABLESTYLE
  5
5F66
102
{ACAD_XDICTIONARY
360
65E5
102
}
102
{ACAD_REACTORS
330
5F65
102
}
330
5F65
100
AcDbTableStyle
  3
Standard
 70
     0
 71
     0
 40
0.06
 41
0.06
280
     0
281
     0
  7
STANDARD
140
0.18
170
     2
 62
     0
 63
     7
283
     0
274
    -2
284
     1
 64
     0
275
    -2
285
     1
 65
     0
276
    -2
286
     1
 66
     0
277
    -2
287
     1
 67
     0
278
    -2
288
     1
 68
     0
279
    -2
289
     1
 69
     0
  7
STANDARD
140
0.25
170
     5
 62
     0
 63
     7
283
     0
274
    -2
284
     1
 64
     0
275
    -2
285
     1
 65
     0
276
    -2
286
     1
 66
     0
277
    -2
287
     1
 67
     0
278
    -2
288
     1
 68
     0
279
    -2
289
     1
 69
     0
  7
STANDARD
140
0.18
170
     5
 62
     0
 63
     7
283
     0
274
    -2
284
     1
 64
     0
275
    -2
285
     1
 65
     0
276
    -2
286
     1
 66
     0
277
    -2
287
     1
 67
     0
278
    -2
288
     1
 68
     0
279
    -2
289
     1
 69
     0
  0
VISUALSTYLE
  5
5F29
102
{ACAD_REACTORS
330
5F23
102
}
330
5F23
100
AcDbVisualStyle
  2
2dWireframe
 70
     4
 71
     0
 72
     2
 73
     0
 90
        0
 40
-0.6
 41
-30.0
 62
     5
 63
     7
 74
     1
 91
        4
 64
     7
 65
   257
 75
     1
175
     1
 42
1.0
 92
        0
 66
   257
 43
1.0
 76
     1
 77
     6
 78
     2
 67
     7
 79
     5
170
     0
171
     0
290
     0
174
     0
 93
        1
 44
0.0
173
     0
291
     0
 45
0.0
1001
ACAD
1000
AcDbSavedByObjectVersion
1070
     0
1000
AcDbSavedByObjectVersion
1070
     0
  0
VISUALSTYLE
  5
5F2B
102
{ACAD_REACTORS
330
5F23
102
}
330
5F23
100
AcDbVisualStyle
  2
3D Hidden
 70
     6
 71
     1
 72
     2
 73
     2
 90
        0
 40
-0.6
 41
-30.0
 62
     5
 63
     7
 74
     2
 91
        2
 64
     7
 65
   257
 75
     2
175
     1
 42
40.0
 92
        0
 66
   257
 43
1.0
 76
     1
 77
     6
 78
     2
 67
     7
 79
     3
170
     0
171
     0
290
     0
174
     0
 93
        1
 44
0.0
173
     0
291
     0
 45
0.0
1001
ACAD
1000
AcDbSavedByObjectVersion
1070
     0
1000
AcDbSavedByObjectVersion
1070
     0
  0
VISUALSTYLE
  5
5F2A
102
{ACAD_REACTORS
330
5F23
102
}
330
5F23
100
AcDbVisualStyle
  2
3dWireframe
 70
     5
 71
     0
 72
     2
 73
     0
 90
        0
 40
-0.6
 41
-30.0
 62
     5
 63
     7
 74
     1
 91
        4
 64
     7
 65
   257
 75
     1
175
     1
 42
1.0
 92
        0
 66
   257
 43
1.0
 76
     1
 77
     6
 78
     2
 67
     7
 79
     5
170
     0
171
     0
290
     0
174
     0
 93
        1
 44
0.0
173
     0
291
     0
 45
0.0
1001
ACAD
1000
AcDbSavedByObjectVersion
1070
     0
1000
AcDbSavedByObjectVersion
1070
     0
  0
VISUALSTYLE
  5
5F28
102
{ACAD_REACTORS
330
5F23
102
}
330
5F23
100
AcDbVisualStyle
  2
Basic
 70
     7
 71
     1
 72
     0
 73
     1
 90
        0
 40
-0.6
 41
-30.0
 62
     5
 63
     7
 74
     0
 91
        4
 64
     7
 65
   257
 75
     1
175
     1
 42
1.0
 92
        8
 66
     7
 43
1.0
 76
     1
 77
     6
 78
     2
 67
     7
 79
     5
170
     0
171
     0
290
     0
174
     0
 93
        1
 44
0.0
173
     0
291
     1
 45
0.0
1001
ACAD
1000
AcDbSavedByObjectVersion
1070
     0
1000
AcDbSavedByObjectVersion
1070
     0
  0
VISUALSTYLE
  5
5F2F
102
{ACAD_REACTORS
330
5F23
102
}
330
5F23
100
AcDbVisualStyle
  2
Brighten
 70
    12
 71
     2
 72
     2
 73
     0
 90
        0
 40
-0.6
 41
-30.0
 62
     5
 63
     7
 74
     1
 91
        4
 64
     7
 65
   257
 75
     1
175
     1
 42
1.0
 92
        8
 66
     7
 43
1.0
 76
     1
 77
     6
 78
     2
 67
     7
 79
     5
170
     0
171
     0
290
     0
174
     0
 93
        1
 44
50.0
173
     0
291
     1
 45
0.0
1001
ACAD
1000
AcDbSavedByObjectVersion
1070
     0
1000
AcDbSavedByObjectVersion
1070
     0
  0
VISUALSTYLE
  5
5F33
102
{ACAD_REACTORS
330
5F23
102
}
330
5F23
100
AcDbVisualStyle
  2
ColorChange
 70
    16
 71
     2
 72
     2
 73
     3
 90
        0
 40
-0.6
 41
-30.0
 62
     5
 63
     8
 74
     1
 91
        4
 64
     7
 65
   257
 75
     1
175
     1
 42
1.0
 92
        8
 66
     8
 43
1.0
 76
     1
 77
     6
 78
     2
 67
     7
 79
     5
170
     0
171
     0
290
     0
174
     0
 93
        1
 44
0.0
173
     0
291
     1
 45
0.0
1001
ACAD
1000
AcDbSavedByObjectVersion
1070
     0
1000
AcDbSavedByObjectVersion
1070
     0
  0
VISUALSTYLE
  5
5F2C
102
{ACAD_REACTORS
330
5F23
102
}
330
5F23
100
AcDbVisualStyle
  2
Conceptual
 70
     9
 71
     3
 72
     2
 73
     0
 90
        0
 40
-0.6
 41
-30.0
 62
     5
 63
     7
 74
     2
 91
        2
 64
     7
 65
   257
 75
     1
175
     1
 42
40.0
 92
        8
 66
     7
 43
1.0
 76
     1
 77
     6
 78
     2
 67
     7
 79
     3
170
     0
171
     0
290
     0
174
     0
 93
        1
 44
0.0
173
     0
291
     0
 45
0.0
1001
ACAD
1000
AcDbSavedByObjectVersion
1070
     0
1000
AcDbSavedByObjectVersion
1070
     0
  0
VISUALSTYLE
  5
5F2E
102
{ACAD_REACTORS
330
5F23
102
}
330
5F23
100
AcDbVisualStyle
  2
Dim
 70
    11
 71
     2
 72
     2
 73
     0
 90
        0
 40
-0.6
 41
-30.0
 62
     5
 63
     7
 74
     1
 91
        4
 64
     7
 65
   257
 75
     1
175
     1
 42
1.0
 92
        8
 66
     7
 43
1.0
 76
     1
 77
     6
 78
     2
 67
     7
 79
     5
170
     0
171
     0
290
     0
174
     0
 93
        1
 44
-50.0
173
     0
291
     1
 45
0.0
1001
ACAD
1000
AcDbSavedByObjectVersion
1070
     0
1000
AcDbSavedByObjectVersion
1070
     0
  0
VISUALSTYLE
  5
5F32
102
{ACAD_REACTORS
330
5F23
102
}
330
5F23
100
AcDbVisualStyle
  2
Facepattern
 70
    15
 71
     2
 72
     2
 73
     0
 90
        0
 40
-0.6
 41
-30.0
 62
     5
 63
     7
 74
     1
 91
        4
 64
     7
 65
   257
 75
     1
175
     1
 42
1.0
 92
        8
 66
     7
 43
1.0
 76
     1
 77
     6
 78
     2
 67
     7
 79
     5
170
     0
171
     0
290
     0
174
     0
 93
        1
 44
0.0
173
     0
291
     1
 45
0.0
1001
ACAD
1000
AcDbSavedByObjectVersion
1070
     0
1000
AcDbSavedByObjectVersion
1070
     0
  0
VISUALSTYLE
  5
5F24
102
{ACAD_REACTORS
330
5F23
102
}
330
5F23
100
AcDbVisualStyle
  2
Flat
 70
     0
 71
     2
 72
     1
 73
     1
 90
        2
 40
-0.6
 41
30.0
 62
     5
 63
     7
 74
     0
 91
        4
 64
     7
 65
   257
 75
     1
175
     1
 42
1.0
 92
        8
 66
     7
 43
1.0
 76
     1
 77
     6
 78
     2
 67
     7
 79
     5
170
     0
171
     0
290
     0
174
     0
 93
       13
 44
0.0
173
     0
291
     1
 45
0.0
1001
ACAD
1000
AcDbSavedByObjectVersion
1070
     0
1000
AcDbSavedByObjectVersion
1070
     0
  0
VISUALSTYLE
  5
5F25
102
{ACAD_REACTORS
330
5F23
102
}
330
5F23
100
AcDbVisualStyle
  2
FlatWithEdges
 70
     1
 71
     2
 72
     1
 73
     1
 90
        2
 40
-0.6
 41
30.0
 62
     5
 63
     7
 74
     1
 91
        4
 64
     7
 65
   257
 75
     1
175
     1
 42
1.0
 92
        0
 66
   257
 43
1.0
 76
     1
 77
     6
 78
     2
 67
     7
 79
     5
170
     0
171
     0
290
     0
174
     0
 93
       13
 44
0.0
173
     0
291
     1
 45
0.0
1001
ACAD
1000
AcDbSavedByObjectVersion
1070
     0
1000
AcDbSavedByObjectVersion
1070
     0
  0
VISUALSTYLE
  5
5F26
102
{ACAD_REACTORS
330
5F23
102
}
330
5F23
100
AcDbVisualStyle
  2
Gouraud
 70
     2
 71
     2
 72
     2
 73
     1
 90
        2
 40
-0.6
 41
30.0
 62
     5
 63
     7
 74
     0
 91
        4
 64
     7
 65
   257
 75
     1
175
     1
 42
1.0
 92
        0
 66
     7
 43
1.0
 76
     1
 77
     6
 78
     2
 67
     7
 79
     5
170
     0
171
     0
290
     0
174
     0
 93
       13
 44
0.0
173
     0
291
     1
 45
0.0
1001
ACAD
1000
AcDbSavedByObjectVersion
1070
     0
1000
AcDbSavedByObjectVersion
1070
     0
  0
VISUALSTYLE
  5
5F27
102
{ACAD_REACTORS
330
5F23
102
}
330
5F23
100
AcDbVisualStyle
  2
GouraudWithEdges
 70
     3
 71
     2
 72
     2
 73
     1
 90
        2
 40
-0.6
 41
30.0
 62
     5
 63
     7
 74
     1
 91
        4
 64
     7
 65
   257
 75
     1
175
     1
 42
1.0
 92
        0
 66
   257
 43
1.0
 76
     1
 77
     6
 78
     2
 67
     7
 79
     5
170
     0
171
     0
290
     0
174
     0
 93
       13
 44
0.0
173
     0
291
     1
 45
0.0
1001
ACAD
1000
AcDbSavedByObjectVersion
1070
     0
1000
AcDbSavedByObjectVersion
1070
     0
  0
VISUALSTYLE
  5
5F31
102
{ACAD_REACTORS
330
5F23
102
}
330
5F23
100
AcDbVisualStyle
  2
Linepattern
 70
    14
 71
     2
 72
     2
 73
     0
 90
        0
 40
-0.6
 41
-30.0
 62
     5
 63
     7
 74
     1
 91
        4
 64
     7
 65
   257
 75
     7
175
     7
 42
1.0
 92
        8
 66
     7
 43
1.0
 76
     1
 77
     6
 78
     2
 67
     7
 79
     5
170
     0
171
     0
290
     0
174
     0
 93
        1
 44
0.0
173
     0
291
     1
 45
0.0
1001
ACAD
1000
AcDbSavedByObjectVersion
1070
     0
1000
AcDbSavedByObjectVersion
1070
     0
  0
VISUALSTYLE
  5
5F2D
102
{ACAD_REACTORS
330
5F23
102
}
330
5F23
100
AcDbVisualStyle
  2
Realistic
 70
     8
 71
     2
 72
     2
 73
     0
 90
        0
 40
-0.6
 41
-30.0
 62
     5
 63
     7
 74
     1
 91
        0
 64
     7
 65
   257
 75
     1
175
     1
 42
1.0
 92
        8
 66
     8
 43
1.0
 76
     1
 77
     6
 78
     2
 67
     7
 79
     5
170
     0
171
     0
290
     0
174
     0
 93
       13
 44
0.0
173
     0
291
     0
 45
0.0
1001
ACAD
1000
AcDbSavedByObjectVersion
1070
     0
1000
AcDbSavedByObjectVersion
1070
     0
  0
VISUALSTYLE
  5
5F30
102
{ACAD_REACTORS
330
5F23
102
}
330
5F23
100
AcDbVisualStyle
  2
Thicken
 70
    13
 71
     2
 72
     2
 73
     0
 90
        0
 40
-0.6
 41
-30.0
 62
     5
 63
     7
 74
     1
 91
        4
 64
     7
 65
   257
 75
     1
175
     1
 42
1.0
 92
       12
 66
     7
 43
1.0
 76
     1
 77
     6
 78
     2
 67
     7
 79
     5
170
     0
171
     0
290
     0
174
     0
 93
        1
 44
0.0
173
     0
291
     1
 45
0.0
1001
ACAD
1000
AcDbSavedByObjectVersion
1070
     0
1000
AcDbSavedByObjectVersion
1070
     0
  0
DICTIONARYVAR
  5
6105
102
{ACAD_REACTORS
330
6102
102
}
330
6102
100
DictionaryVariables
280
     0
  1
1:1
  0
DICTIONARYVAR
  5
6104
102
{ACAD_REACTORS
330
6102
102
}
330
6102
100
DictionaryVariables
280
     0
  1
STANDARD
  0
DICTIONARYVAR
  5
6103
102
{ACAD_REACTORS
330
6102
102
}
330
6102
100
DictionaryVariables
280
     0
  1
STANDARD
  0
DICTIONARYVAR
  5
6108
102
{ACAD_REACTORS
330
6102
102
}
330
6102
100
DictionaryVariables
280
     0
  1
1
  0
DICTIONARYVAR
  5
6107
102
{ACAD_REACTORS
330
6102
102
}
330
6102
100
DictionaryVariables
280
     0
  1
0
  0
DICTIONARYVAR
  5
6106
102
{ACAD_REACTORS
330
6102
102
}
330
6102
100
DictionaryVariables
280
     0
  1
127
  0
VLO-VL
  5
60F3
102
{ACAD_REACTORS
330
60F2
102
}
330
60F2
100
vlo_VL
 90
   -64512
 91
       12
 92
        1
 40
2.5
300
(&VLO-R . 0)
  0
DICTIONARY
  5
688C
330
5F71
100
AcDbDictionary
280
     1
281
     1
  3
ACAD_XREC_ROUNDTRIP
360
688D
  0
DICTIONARY
  5
688A
330
5F6D
100
AcDbDictionary
280
     1
281
     1
  3
ACAD_XREC_ROUNDTRIP
360
688B
  0
DICTIONARY
  5
5F14
330
5F13
100
AcDbDictionary
280
     1
281
     1
  3
ACAD_XREC_ROUNDTRIP
360
65EE
  3
BUMPTILE
360
5F16
  3
DIFFUSETILE
360
5F15
  3
OPACITYTILE
360
5F19
  3
REFLECTIONTILE
360
5F18
  3
REFRACTIONTILE
360
5F1A
  3
SPECULARTILE
360
5F17
  0
DICTIONARY
  5
5F0C
330
5F0B
100
AcDbDictionary
280
     1
281
     1
  3
ACAD_XREC_ROUNDTRIP
360
65ED
  3
BUMPTILE
360
5F0E
  3
DIFFUSETILE
360
5F0D
  3
OPACITYTILE
360
5F11
  3
REFLECTIONTILE
360
5F10
  3
REFRACTIONTILE
360
5F12
  3
SPECULARTILE
360
5F0F
  0
DICTIONARY
  5
5F1C
330
5F1B
100
AcDbDictionary
280
     1
281
     1
  3
ACAD_XREC_ROUNDTRIP
360
65EF
  3
BUMPTILE
360
5F1E
  3
DIFFUSETILE
360
5F1D
  3
OPACITYTILE
360
5F21
  3
REFLECTIONTILE
360
5F20
  3
REFRACTIONTILE
360
5F22
  3
SPECULARTILE
360
5F1F
  0
DICTIONARY
  5
65E5
330
5F66
100
AcDbDictionary
280
     1
281
     1
  3
ACAD_ROUNDTRIP_2008_TABLESTYLE_CELLSTYLEMAP
360
6887
  3
ACAD_XREC_ROUNDTRIP
360
6889
  0
XRECORD
  5
688D
102
{ACAD_REACTORS
330
688C
102
}
330
688C
100
AcDbXrecord
280
     1
102
SHADEPLOT
 70
     0
102
SHADEPLOTRESLEVEL
 70
     2
102
SHADEPLOTCUSTOMDPI
 70
   300
  0
XRECORD
  5
688B
102
{ACAD_REACTORS
330
688A
102
}
330
688A
100
AcDbXrecord
280
     1
102
SHADEPLOT
 70
     0
102
SHADEPLOTRESLEVEL
 70
     2
102
SHADEPLOTCUSTOMDPI
 70
   300
  0
XRECORD
  5
65EE
102
{ACAD_REACTORS
330
5F14
102
}
330
5F14
100
AcDbXrecord
280
     1
102
MATERIAL
148
0.0
149
0.0
149
0.0
 93
        0
 94
      127
282
     0
 72
     0
 77
     0
171
     0
175
     0
179
     0
273
     0
  0
XRECORD
  5
5F16
102
{ACAD_REACTORS
330
5F14
102
}
330
5F14
100
AcDbXrecord
280
     1
270
     1
271
     1
  0
XRECORD
  5
5F15
102
{ACAD_REACTORS
330
5F14
102
}
330
5F14
100
AcDbXrecord
280
     1
270
     1
271
     1
  0
XRECORD
  5
5F19
102
{ACAD_REACTORS
330
5F14
102
}
330
5F14
100
AcDbXrecord
280
     1
270
     1
271
     1
  0
XRECORD
  5
5F18
102
{ACAD_REACTORS
330
5F14
102
}
330
5F14
100
AcDbXrecord
280
     1
270
     1
271
     1
  0
XRECORD
  5
5F1A
102
{ACAD_REACTORS
330
5F14
102
}
330
5F14
100
AcDbXrecord
280
     1
270
     1
271
     1
  0
XRECORD
  5
5F17
102
{ACAD_REACTORS
330
5F14
102
}
330
5F14
100
AcDbXrecord
280
     1
270
     1
271
     1
  0
XRECORD
  5
65ED
102
{ACAD_REACTORS
330
5F0C
102
}
330
5F0C
100
AcDbXrecord
280
     1
102
MATERIAL
148
0.0
149
0.0
149
0.0
 93
        0
 94
      127
282
     0
 72
     0
 77
     0
171
     0
175
     0
179
     0
273
     0
  0
XRECORD
  5
5F0E
102
{ACAD_REACTORS
330
5F0C
102
}
330
5F0C
100
AcDbXrecord
280
     1
270
     1
271
     1
  0
XRECORD
  5
5F0D
102
{ACAD_REACTORS
330
5F0C
102
}
330
5F0C
100
AcDbXrecord
280
     1
270
     1
271
     1
  0
XRECORD
  5
5F11
102
{ACAD_REACTORS
330
5F0C
102
}
330
5F0C
100
AcDbXrecord
280
     1
270
     1
271
     1
  0
XRECORD
  5
5F10
102
{ACAD_REACTORS
330
5F0C
102
}
330
5F0C
100
AcDbXrecord
280
     1
270
     1
271
     1
  0
XRECORD
  5
5F12
102
{ACAD_REACTORS
330
5F0C
102
}
330
5F0C
100
AcDbXrecord
280
     1
270
     1
271
     1
  0
XRECORD
  5
5F0F
102
{ACAD_REACTORS
330
5F0C
102
}
330
5F0C
100
AcDbXrecord
280
     1
270
     1
271
     1
  0
XRECORD
  5
65EF
102
{ACAD_REACTORS
330
5F1C
102
}
330
5F1C
100
AcDbXrecord
280
     1
102
MATERIAL
148
0.0
149
0.0
149
0.0
 93
        0
 94
      127
282
     0
 72
     0
 77
     0
171
     0
175
     0
179
     0
273
     0
  0
XRECORD
  5
5F1E
102
{ACAD_REACTORS
330
5F1C
102
}
330
5F1C
100
AcDbXrecord
280
     1
270
     1
271
     1
  0
XRECORD
  5
5F1D
102
{ACAD_REACTORS
330
5F1C
102
}
330
5F1C
100
AcDbXrecord
280
     1
270
     1
271
     1
  0
XRECORD
  5
5F21
102
{ACAD_REACTORS
330
5F1C
102
}
330
5F1C
100
AcDbXrecord
280
     1
270
     1
271
     1
  0
XRECORD
  5
5F20
102
{ACAD_REACTORS
330
5F1C
102
}
330
5F1C
100
AcDbXrecord
280
     1
270
     1
271
     1
  0
XRECORD
  5
5F22
102
{ACAD_REACTORS
330
5F1C
102
}
330
5F1C
100
AcDbXrecord
280
     1
270
     1
271
     1
  0
XRECORD
  5
5F1F
102
{ACAD_REACTORS
330
5F1C
102
}
330
5F1C
100
AcDbXrecord
280
     1
270
     1
271
     1
  0
CELLSTYLEMAP
  5
6887
102
{ACAD_REACTORS
330
65E5
102
}
330
65E5
100
AcDbCellStyleMap
 90
        3
300
CELLSTYLE
  1
TABLEFORMAT_BEGIN
 90
        5
170
     1
 91
        0
 92
    32768
 62
   257
 93
        1
300
CONTENTFORMAT
  1
CONTENTFORMAT_BEGIN
 90
        0
 91
        0
 92
      512
 93
        0
300

 40
0.0
140
1.0
 94
        5
 62
     0
340
5F57
144
0.25
309
CONTENTFORMAT_END
171
     1
301
MARGIN
  1
CELLMARGIN_BEGIN
 40
0.06
 40
0.06
 40
0.06
 40
0.06
 40
0.18
 40
0.18
309
CELLMARGIN_END
 94
        6
 95
        1
302
GRIDFORMAT
  1
GRIDFORMAT_BEGIN
 90
        0
 91
        1
 62
     0
 92
       -2
340
0
 93
        0
 40
0.045
309
GRIDFORMAT_END
 95
        2
302
GRIDFORMAT
  1
GRIDFORMAT_BEGIN
 90
        0
 91
        1
 62
     0
 92
       -2
340
0
 93
        0
 40
0.045
309
GRIDFORMAT_END
 95
        4
302
GRIDFORMAT
  1
GRIDFORMAT_BEGIN
 90
        0
 91
        1
 62
     0
 92
       -2
340
0
 93
        0
 40
0.045
309
GRIDFORMAT_END
 95
        8
302
GRIDFORMAT
  1
GRIDFORMAT_BEGIN
 90
        0
 91
        1
 62
     0
 92
       -2
340
0
 93
        0
 40
0.045
309
GRIDFORMAT_END
 95
       16
302
GRIDFORMAT
  1
GRIDFORMAT_BEGIN
 90
        0
 91
        1
 62
     0
 92
       -2
340
0
 93
        0
 40
0.045
309
GRIDFORMAT_END
 95
       32
302
GRIDFORMAT
  1
GRIDFORMAT_BEGIN
 90
        0
 91
        1
 62
     0
 92
       -2
340
0
 93
        0
 40
0.045
309
GRIDFORMAT_END
309
TABLEFORMAT_END
  1
CELLSTYLE_BEGIN
 90
        1
 91
        1
300
_TITLE
309
CELLSTYLE_END
300
CELLSTYLE
  1
TABLEFORMAT_BEGIN
 90
        5
170
     1
 91
        0
 92
        0
 62
   257
 93
        1
300
CONTENTFORMAT
  1
CONTENTFORMAT_BEGIN
 90
        0
 91
        0
 92
      512
 93
        0
300

 40
0.0
140
1.0
 94
        5
 62
     0
340
5F57
144
0.18
309
CONTENTFORMAT_END
171
     1
301
MARGIN
  1
CELLMARGIN_BEGIN
 40
0.06
 40
0.06
 40
0.06
 40
0.06
 40
0.18
 40
0.18
309
CELLMARGIN_END
 94
        6
 95
        1
302
GRIDFORMAT
  1
GRIDFORMAT_BEGIN
 90
        0
 91
        1
 62
     0
 92
       -2
340
0
 93
        0
 40
0.045
309
GRIDFORMAT_END
 95
        2
302
GRIDFORMAT
  1
GRIDFORMAT_BEGIN
 90
        0
 91
        1
 62
     0
 92
       -2
340
0
 93
        0
 40
0.045
309
GRIDFORMAT_END
 95
        4
302
GRIDFORMAT
  1
GRIDFORMAT_BEGIN
 90
        0
 91
        1
 62
     0
 92
       -2
340
0
 93
        0
 40
0.045
309
GRIDFORMAT_END
 95
        8
302
GRIDFORMAT
  1
GRIDFORMAT_BEGIN
 90
        0
 91
        1
 62
     0
 92
       -2
340
0
 93
        0
 40
0.045
309
GRIDFORMAT_END
 95
       16
302
GRIDFORMAT
  1
GRIDFORMAT_BEGIN
 90
        0
 91
        1
 62
     0
 92
       -2
340
0
 93
        0
 40
0.045
309
GRIDFORMAT_END
 95
       32
302
GRIDFORMAT
  1
GRIDFORMAT_BEGIN
 90
        0
 91
        1
 62
     0
 92
       -2
340
0
 93
        0
 40
0.045
309
GRIDFORMAT_END
309
TABLEFORMAT_END
  1
CELLSTYLE_BEGIN
 90
        2
 91
        1
300
_HEADER
309
CELLSTYLE_END
300
CELLSTYLE
  1
TABLEFORMAT_BEGIN
 90
        5
170
     1
 91
        0
 92
        0
 62
   257
 93
        1
300
CONTENTFORMAT
  1
CONTENTFORMAT_BEGIN
 90
        0
 91
        0
 92
      512
 93
        0
300

 40
0.0
140
1.0
 94
        2
 62
     0
340
5F57
144
0.18
309
CONTENTFORMAT_END
171
     1
301
MARGIN
  1
CELLMARGIN_BEGIN
 40
0.06
 40
0.06
 40
0.06
 40
0.06
 40
0.18
 40
0.18
309
CELLMARGIN_END
 94
        6
 95
        1
302
GRIDFORMAT
  1
GRIDFORMAT_BEGIN
 90
        0
 91
        1
 62
     0
 92
       -2
340
0
 93
        0
 40
0.045
309
GRIDFORMAT_END
 95
        2
302
GRIDFORMAT
  1
GRIDFORMAT_BEGIN
 90
        0
 91
        1
 62
     0
 92
       -2
340
0
 93
        0
 40
0.045
309
GRIDFORMAT_END
 95
        4
302
GRIDFORMAT
  1
GRIDFORMAT_BEGIN
 90
        0
 91
        1
 62
     0
 92
       -2
340
0
 93
        0
 40
0.045
309
GRIDFORMAT_END
 95
        8
302
GRIDFORMAT
  1
GRIDFORMAT_BEGIN
 90
        0
 91
        1
 62
     0
 92
       -2
340
0
 93
        0
 40
0.045
309
GRIDFORMAT_END
 95
       16
302
GRIDFORMAT
  1
GRIDFORMAT_BEGIN
 90
        0
 91
        1
 62
     0
 92
       -2
340
0
 93
        0
 40
0.045
309
GRIDFORMAT_END
 95
       32
302
GRIDFORMAT
  1
GRIDFORMAT_BEGIN
 90
        0
 91
        1
 62
     0
 92
       -2
340
0
 93
        0
 40
0.045
309
GRIDFORMAT_END
309
TABLEFORMAT_END
  1
CELLSTYLE_BEGIN
 90
        3
 91
        2
300
_DATA
309
CELLSTYLE_END
  0
XRECORD
  5
6889
102
{ACAD_REACTORS
330
65E5
102
}
330
65E5
100
AcDbXrecord
280
     1
102
ACAD_ROUNDTRIP_PRE2007_TABLESTYLE
 90
      512
 91
        0
  1

 92
      512
 93
        0
  2

 94
      512
 95
        0
  3

  0
ENDSEC
  0
EOF
